  0
SECTION
  2
HEADER
  9
$ACADVER
  1
AC1015
  9
$ACADMAINTVER
 70
     6
  9
$DWGCODEPAGE
  3
ANSI_1252
  9
$INSBASE
 10
0.0
 20
0.0
 30
0.0
  9
$EXTMIN
 10
0.0
 20
0.0
 30
0.0
  9
$EXTMAX
 10
17.0
 20
11.0
 30
0.0
  9
$LIMMIN
 10
0.0
 20
0.0
  9
$LIMMAX
 10
17.0
 20
11.0
  9
$ORTHOMODE
 70
     0
  9
$REGENMODE
 70
     1
  9
$FILLMODE
 70
     1
  9
$QTEXTMODE
 70
     0
  9
$MIRRTEXT
 70
     1
  9
$LTSCALE
 40
1.0
  9
$ATTMODE
 70
     1
  9
$TEXTSIZE
 40
0.125
  9
$TRACEWID
 40
0.05
  9
$TEXTSTYLE
  7
Standard
  9
$CLAYER
  8
0
  9
$CELTYPE
  6
ByLayer
  9
$CECOLOR
 62
   256
  9
$CELTSCALE
 40
1.0
  9
$DISPSILH
 70
     0
  9
$DIMSCALE
 40
1.0
  9
$DIMASZ
 40
0.094
  9
$DIMEXO
 40
0.05
  9
$DIMDLI
 40
0.38
  9
$DIMRND
 40
0.0
  9
$DIMDLE
 40
0.0
  9
$DIMEXE
 40
0.125
  9
$DIMTP
 40
0.0
  9
$DIMTM
 40
0.0
  9
$DIMTXT
 40
0.125
  9
$DIMCEN
 40
0.09
  9
$DIMTSZ
 40
0.0
  9
$DIMTOL
 70
     0
  9
$DIMLIM
 70
     0
  9
$DIMTIH
 70
     1
  9
$DIMTOH
 70
     1
  9
$DIMSE1
 70
     0
  9
$DIMSE2
 70
     0
  9
$DIMTAD
 70
     0
  9
$DIMZIN
 70
     0
  9
$DIMBLK
  1

  9
$DIMASO
 70
     1
  9
$DIMSHO
 70
     1
  9
$DIMPOST
  1

  9
$DIMAPOST
  1

  9
$DIMALT
 70
     0
  9
$DIMALTD
 70
     2
  9
$DIMALTF
 40
25.4
  9
$DIMLFAC
 40
1.0
  9
$DIMTOFL
 70
     0
  9
$DIMTVP
 40
0.0
  9
$DIMTIX
 70
     0
  9
$DIMSOXD
 70
     0
  9
$DIMSAH
 70
     0
  9
$DIMBLK1
  1

  9
$DIMBLK2
  1

  9
$DIMSTYLE
  2
Standard
  9
$DIMCLRD
 70
     0
  9
$DIMCLRE
 70
     0
  9
$DIMCLRT
 70
     0
  9
$DIMTFAC
 40
1.0
  9
$DIMGAP
 40
0.06
  9
$DIMJUST
 70
     0
  9
$DIMSD1
 70
     0
  9
$DIMSD2
 70
     0
  9
$DIMTOLJ
 70
     1
  9
$DIMTZIN
 70
     0
  9
$DIMALTZ
 70
     0
  9
$DIMALTTZ
 70
     0
  9
$DIMUPT
 70
     0
  9
$DIMDEC
 70
     2
  9
$DIMTDEC
 70
     2
  9
$DIMALTU
 70
     2
  9
$DIMALTTD
 70
     2
  9
$DIMTXSTY
  7
Standard
  9
$DIMAUNIT
 70
     0
  9
$DIMADEC
 70
     3
  9
$DIMALTRND
 40
0.0
  9
$DIMAZIN
 70
     0
  9
$DIMDSEP
 70
    46
  9
$DIMATFIT
 70
     3
  9
$DIMFRAC
 70
     0
  9
$DIMLDRBLK
  1

  9
$DIMLUNIT
 70
     2
  9
$DIMLWD
 70
    -2
  9
$DIMLWE
 70
    -2
  9
$DIMTMOVE
 70
     0
  9
$LUNITS
 70
     2
  9
$LUPREC
 70
     2
  9
$SKETCHINC
 40
0.1
  9
$FILLETRAD
 40
0.5
  9
$AUNITS
 70
     0
  9
$AUPREC
 70
     3
  9
$MENU
  1
.
  9
$ELEVATION
 40
0.0
  9
$PELEVATION
 40
0.0
  9
$THICKNESS
 40
0.0
  9
$LIMCHECK
 70
     0
  9
$CHAMFERA
 40
0.0
  9
$CHAMFERB
 40
0.0
  9
$CHAMFERC
 40
0.0
  9
$CHAMFERD
 40
0.0
  9
$SKPOLY
 70
     0
  9
$TDCREATE
 40
2457571.68419316
  9
$TDUCREATE
 40
2457571.850859826
  9
$TDUPDATE
 40
2457571.684194549
  9
$TDUUPDATE
 40
2457571.850861215
  9
$TDINDWG
 40
0.0000000116
  9
$TDUSRTIMER
 40
0.0000000116
  9
$USRTIMER
 70
     1
  9
$ANGBASE
 50
0.0
  9
$ANGDIR
 70
     0
  9
$PDMODE
 70
     0
  9
$PDSIZE
 40
-1.0
  9
$PLINEWID
 40
0.0
  9
$SPLFRAME
 70
     0
  9
$SPLINETYPE
 70
     6
  9
$SPLINESEGS
 70
     8
  9
$HANDSEED
  5
1BE
  9
$SURFTAB1
 70
     6
  9
$SURFTAB2
 70
     6
  9
$SURFTYPE
 70
     6
  9
$SURFU
 70
     6
  9
$SURFV
 70
     6
  9
$UCSBASE
  2

  9
$UCSNAME
  2

  9
$UCSORG
 10
0.0
 20
0.0
 30
0.0
  9
$UCSXDIR
 10
1.0
 20
0.0
 30
0.0
  9
$UCSYDIR
 10
0.0
 20
1.0
 30
0.0
  9
$UCSORTHOREF
  2

  9
$UCSORTHOVIEW
 70
     0
  9
$UCSORGTOP
 10
0.0
 20
0.0
 30
0.0
  9
$UCSORGBOTTOM
 10
0.0
 20
0.0
 30
0.0
  9
$UCSORGLEFT
 10
0.0
 20
0.0
 30
0.0
  9
$UCSORGRIGHT
 10
0.0
 20
0.0
 30
0.0
  9
$UCSORGFRONT
 10
0.0
 20
0.0
 30
0.0
  9
$UCSORGBACK
 10
0.0
 20
0.0
 30
0.0
  9
$PUCSBASE
  2

  9
$PUCSNAME
  2

  9
$PUCSORG
 10
0.0
 20
0.0
 30
0.0
  9
$PUCSXDIR
 10
1.0
 20
0.0
 30
0.0
  9
$PUCSYDIR
 10
0.0
 20
1.0
 30
0.0
  9
$PUCSORTHOREF
  2

  9
$PUCSORTHOVIEW
 70
     0
  9
$PUCSORGTOP
 10
0.0
 20
0.0
 30
0.0
  9
$PUCSORGBOTTOM
 10
0.0
 20
0.0
 30
0.0
  9
$PUCSORGLEFT
 10
0.0
 20
0.0
 30
0.0
  9
$PUCSORGRIGHT
 10
0.0
 20
0.0
 30
0.0
  9
$PUCSORGFRONT
 10
0.0
 20
0.0
 30
0.0
  9
$PUCSORGBACK
 10
0.0
 20
0.0
 30
0.0
  9
$USERI1
 70
     0
  9
$USERI2
 70
     0
  9
$USERI3
 70
     0
  9
$USERI4
 70
     0
  9
$USERI5
 70
     0
  9
$USERR1
 40
0.0
  9
$USERR2
 40
0.0
  9
$USERR3
 40
0.0
  9
$USERR4
 40
0.0
  9
$USERR5
 40
0.0
  9
$WORLDVIEW
 70
     1
  9
$SHADEDGE
 70
     3
  9
$SHADEDIF
 70
    70
  9
$TILEMODE
 70
     1
  9
$MAXACTVP
 70
    64
  9
$PINSBASE
 10
0.0
 20
0.0
 30
0.0
  9
$PLIMCHECK
 70
     0
  9
$PEXTMIN
 10
1.0000000000E+20
 20
1.0000000000E+20
 30
1.0000000000E+20
  9
$PEXTMAX
 10
-1.0000000000E+20
 20
-1.0000000000E+20
 30
-1.0000000000E+20
  9
$PLIMMIN
 10
0.0
 20
0.0
  9
$PLIMMAX
 10
12.0
 20
9.0
  9
$UNITMODE
 70
     0
  9
$VISRETAIN
 70
     1
  9
$PLINEGEN
 70
     0
  9
$PSLTSCALE
 70
     1
  9
$TREEDEPTH
 70
  3020
  9
$CMLSTYLE
  2
Standard
  9
$CMLJUST
 70
     0
  9
$CMLSCALE
 40
1.0
  9
$PROXYGRAPHICS
 70
     1
  9
$MEASUREMENT
 70
     0
  9
$CELWEIGHT
370
    -1
  9
$ENDCAPS
280
     0
  9
$JOINSTYLE
280
     0
  9
$LWDISPLAY
290
     1
  9
$INSUNITS
 70
     1
  9
$HYPERLINKBASE
  1

  9
$STYLESHEET
  1

  9
$XEDIT
290
     1
  9
$CEPSNTYPE
380
     0
  9
$PSTYLEMODE
290
     1
  9
$FINGERPRINTGUID
  2
{C2ACF5DD-E6E0-46D7-ADDF-29FDE7CC1A0A}
  9
$VERSIONGUID
  2
{FAEB1C32-E019-11D5-929B-00C0DF256EC4}
  9
$EXTNAMES
290
     1
  9
$PSVPSCALE
 40
0.0
  9
$OLESTARTUP
290
     0
  0
ENDSEC
  0
SECTION
  2
CLASSES
  0
CLASS
  1
ACDBDICTIONARYWDFLT
  2
AcDbDictionaryWithDefault
  3
ObjectDBX Classes
 90
        0
280
     0
281
     0
  0
CLASS
  1
VISUALSTYLE
  2
AcDbVisualStyle
  3
ObjectDBX Classes
 90
     4095
280
     0
281
     0
  0
CLASS
  1
MATERIAL
  2
AcDbMaterial
  3
ObjectDBX Classes
 90
     1153
280
     0
281
     0
  0
CLASS
  1
SCALE
  2
AcDbScale
  3
ObjectDBX Classes
 90
     1153
280
     0
281
     0
  0
CLASS
  1
TABLESTYLE
  2
AcDbTableStyle
  3
ObjectDBX Classes
 90
     4095
280
     0
281
     0
  0
CLASS
  1
MLEADERSTYLE
  2
AcDbMLeaderStyle
  3
ACDB_MLEADERSTYLE_CLASS
 90
     4095
280
     0
281
     0
  0
CLASS
  1
SUN
  2
AcDbSun
  3
SCENEOE
 90
     1153
280
     0
281
     0
  0
CLASS
  1
ACDBPLACEHOLDER
  2
AcDbPlaceHolder
  3
ObjectDBX Classes
 90
        0
280
     0
281
     0
  0
CLASS
  1
LAYOUT
  2
AcDbLayout
  3
ObjectDBX Classes
 90
        0
280
     0
281
     0
  0
ENDSEC
  0
SECTION
  2
TABLES
  0
TABLE
  2
VPORT
  5
8
330
0
100
AcDbSymbolTable
 70
     1
  0
VPORT
  5
29
330
8
100
AcDbSymbolTableRecord
100
AcDbViewportTableRecord
  2
*Active
 70
     0
 10
0.0
 20
0.0
 11
1.0
 21
1.0
 12
8.5
 22
5.5
 13
0.0
 23
0.0
 14
0.5
 24
0.5
 15
0.5
 25
0.5
 16
0.0
 26
0.0
 36
1.0
 17
0.0
 27
0.0
 37
0.0
 40
11.0
 41
1.5454545455
 42
50.0
 43
0.0
 44
0.0
 50
0.0
 51
0.0
 71
     0
 72
  2000
 73
     1
 74
     3
 75
     0
 76
     0
 77
     0
 78
     0
281
     0
 65
     1
110
0.0
120
0.0
130
0.0
111
1.0
121
0.0
131
0.0
112
0.0
122
1.0
132
0.0
 79
     0
146
0.0
  0
ENDTAB
  0
TABLE
  2
LTYPE
  5
5
330
0
100
AcDbSymbolTable
 70
     6
  0
LTYPE
  5
14
330
5
100
AcDbSymbolTableRecord
100
AcDbLinetypeTableRecord
  2
ByBlock
 70
     0
  3

 72
    65
 73
     0
 40
0.0
  0
LTYPE
  5
15
330
5
100
AcDbSymbolTableRecord
100
AcDbLinetypeTableRecord
  2
ByLayer
 70
     0
  3

 72
    65
 73
     0
 40
0.0
  0
LTYPE
  5
16
330
5
100
AcDbSymbolTableRecord
100
AcDbLinetypeTableRecord
  2
Continuous
 70
     0
  3
Solid line
 72
    65
 73
     0
 40
0.0
  0
LTYPE
  5
6E
330
5
100
AcDbSymbolTableRecord
100
AcDbLinetypeTableRecord
  2
HIDDEN
 70
     0
  3
Hidden __ __ __ __ __ __ __ __ __ __ __ __ __ __
 72
    65
 73
     2
 40
0.075
 49
0.05
 74
     0
 49
-0.025
 74
     0
  0
LTYPE
  5
6F
330
5
100
AcDbSymbolTableRecord
100
AcDbLinetypeTableRecord
  2
PHANTOM
 70
     0
  3
Phantom ______  __  __  ______  __  __  ______
 72
    65
 73
     6
 40
0.5
 49
0.25
 74
     0
 49
-0.05
 74
     0
 49
0.05
 74
     0
 49
-0.05
 74
     0
 49
0.05
 74
     0
 49
-0.05
 74
     0
  0
LTYPE
  5
70
330
5
100
AcDbSymbolTableRecord
100
AcDbLinetypeTableRecord
  2
CENTER
 70
     0
  3
Center ____ _ ____ _ ____ _ ____ _ ____ _ ____
 72
    65
 73
     4
 40
0.4
 49
0.25
 74
     0
 49
-0.05
 74
     0
 49
0.05
 74
     0
 49
-0.05
 74
     0
  0
LTYPE
  5
71
330
5
100
AcDbSymbolTableRecord
100
AcDbLinetypeTableRecord
  2
CENTERX2
 70
     0
  3
Center (2x) ________  __  ________  __  _____
 72
    65
 73
     4
 40
0.8
 49
0.5
 74
     0
 49
-0.1
 74
     0
 49
0.1
 74
     0
 49
-0.1
 74
     0
  0
LTYPE
  5
72
330
5
100
AcDbSymbolTableRecord
100
AcDbLinetypeTableRecord
  2
DOT2
 70
     0
  3
Dot (.5x) ........................................
 72
    65
 73
     2
 40
0.025
 49
0.0
 74
     0
 49
-0.025
 74
     0
  0
ENDTAB
  0
TABLE
  2
LAYER
  5
2
330
0
100
AcDbSymbolTable
 70
     1
  0
LAYER
  5
10
330
2
100
AcDbSymbolTableRecord
100
AcDbLayerTableRecord
  2
0
 70
     0
 62
     7
  6
Continuous
370
    -3
390
F
  0
ENDTAB
  0
TABLE
  2
STYLE
  5
3
330
0
100
AcDbSymbolTable
 70
     4
  0
STYLE
  5
11
330
3
100
AcDbSymbolTableRecord
100
AcDbTextStyleTableRecord
  2
Standard
 70
     0
 40
0.0
 41
1.0
 50
0.0
 71
     0
 42
0.125
  3
txt
  4

  0
STYLE
  5
BD
330
3
100
AcDbSymbolTableRecord
100
AcDbTextStyleTableRecord
  2
SLDTEXTSTYLE0
 70
     0
 40
0.0
 41
0.605
 50
0.0
 71
     0
 42
0.125
  3
TXT
  4

  0
STYLE
  5
C1
330
3
100
AcDbSymbolTableRecord
100
AcDbTextStyleTableRecord
  2
SLDTEXTSTYLE1
 70
     0
 40
0.0
 41
0.75
 50
0.0
 71
     0
 42
0.125
  3
TXT
  4

  0
STYLE
  5
C5
330
3
100
AcDbSymbolTableRecord
100
AcDbTextStyleTableRecord
  2
SLDTEXTSTYLE2
 70
     0
 40
0.0
 41
0.7
 50
0.0
 71
     0
 42
0.125
  3
TXT
  4

  0
ENDTAB
  0
TABLE
  2
VIEW
  5
6
330
0
100
AcDbSymbolTable
 70
     0
  0
ENDTAB
  0
TABLE
  2
UCS
  5
7
330
0
100
AcDbSymbolTable
 70
     0
  0
ENDTAB
  0
TABLE
  2
APPID
  5
9
330
0
100
AcDbSymbolTable
 70
     1
  0
APPID
  5
12
330
9
100
AcDbSymbolTableRecord
100
AcDbRegAppTableRecord
  2
ACAD
 70
     0
  0
ENDTAB
  0
TABLE
  2
DIMSTYLE
  5
A
330
0
100
AcDbSymbolTable
 70
     5
100
AcDbDimStyleTable
  0
DIMSTYLE
105
27
330
A
100
AcDbSymbolTableRecord
100
AcDbDimStyleTableRecord
  2
Standard
 70
     0
178
     0
340
11
  0
DIMSTYLE
105
E0
102
{ACAD_REACTORS
330
DF
330
117
330
12A
330
13C
330
14E
102
}
330
A
100
AcDbSymbolTableRecord
100
AcDbDimStyleTableRecord
  2
SLDDIMSTYLE0
 70
     0
 41
0.094
 44
0.0
 45
0.000000001
 78
    12
 79
     3
140
0.125
147
0.03125
148
0.000000001
170
     1
173
     1
178
     0
271
     2
272
     2
276
     2
284
    12
340
BD
  0
DIMSTYLE
105
F3
102
{ACAD_REACTORS
330
F2
102
}
330
A
100
AcDbSymbolTableRecord
100
AcDbDimStyleTableRecord
  2
SLDDIMSTYLE1
 70
     0
 41
0.094
 44
0.0
 45
0.000000001
 78
     4
 79
     1
140
0.125
147
0.03125
148
0.000000001
170
     1
173
     1
178
     0
271
     2
272
     2
276
     2
284
    12
340
BD
  0
DIMSTYLE
105
106
102
{ACAD_REACTORS
330
105
102
}
330
A
100
AcDbSymbolTableRecord
100
AcDbDimStyleTableRecord
  2
SLDDIMSTYLE2
 70
     0
 41
0.094
 44
0.0
 45
0.000000001
 78
    12
 79
     3
140
0.125
141
0.0
147
0.03125
148
0.000000001
170
     1
173
     1
178
     0
271
     2
272
     2
276
     2
284
    12
340
BD
  0
DIMSTYLE
105
199
102
{ACAD_REACTORS
330
198
102
}
330
A
100
AcDbSymbolTableRecord
100
AcDbDimStyleTableRecord
  2
SLDDIMSTYLE3
 70
     0
 41
0.094
 44
0.0
 45
0.000000001
 78
     4
 79
     1
140
0.125
147
0.03125
148
0.000000001
170
     1
172
     1
173
     1
178
     0
271
     3
272
     2
276
     2
284
    12
289
     0
340
BD
  0
ENDTAB
  0
TABLE
  2
BLOCK_RECORD
  5
1
330
0
100
AcDbSymbolTable
 70
    15
  0
BLOCK_RECORD
  5
1F
330
1
100
AcDbSymbolTableRecord
100
AcDbBlockTableRecord
  2
*Model_Space
340
22
  0
BLOCK_RECORD
  5
1B
330
1
100
AcDbSymbolTableRecord
100
AcDbBlockTableRecord
  2
*Paper_Space
340
1E
  0
BLOCK_RECORD
  5
23
330
1
100
AcDbSymbolTableRecord
100
AcDbBlockTableRecord
  2
*Paper_Space0
340
26
  0
BLOCK_RECORD
  5
BA
330
1
100
AcDbSymbolTableRecord
100
AcDbBlockTableRecord
  2
SW_NOTE_0
340
0
102
{BLKREFS
331
C0
102
}
  0
BLOCK_RECORD
  5
CA
330
1
100
AcDbSymbolTableRecord
100
AcDbBlockTableRecord
  2
SW_NOTE_1
340
0
102
{BLKREFS
331
D2
102
}
  0
BLOCK_RECORD
  5
E1
330
1
100
AcDbSymbolTableRecord
100
AcDbBlockTableRecord
  2
_D
340
0
  0
BLOCK_RECORD
  5
F4
330
1
100
AcDbSymbolTableRecord
100
AcDbBlockTableRecord
  2
_D_1
340
0
  0
BLOCK_RECORD
  5
107
330
1
100
AcDbSymbolTableRecord
100
AcDbBlockTableRecord
  2
_D_2
340
0
  0
BLOCK_RECORD
  5
118
330
1
100
AcDbSymbolTableRecord
100
AcDbBlockTableRecord
  2
_D_3
340
0
  0
BLOCK_RECORD
  5
12B
330
1
100
AcDbSymbolTableRecord
100
AcDbBlockTableRecord
  2
_D_4
340
0
  0
BLOCK_RECORD
  5
13D
330
1
100
AcDbSymbolTableRecord
100
AcDbBlockTableRecord
  2
_D_5
340
0
  0
BLOCK_RECORD
  5
14F
330
1
100
AcDbSymbolTableRecord
100
AcDbBlockTableRecord
  2
_D_6
340
0
  0
BLOCK_RECORD
  5
160
330
1
100
AcDbSymbolTableRecord
100
AcDbBlockTableRecord
  2
SW_CENTERMARKSYMBOL_0
340
0
102
{BLKREFS
331
16B
102
}
  0
BLOCK_RECORD
  5
16C
330
1
100
AcDbSymbolTableRecord
100
AcDbBlockTableRecord
  2
SW_CENTERMARKSYMBOL_1
340
0
102
{BLKREFS
331
177
102
}
  0
BLOCK_RECORD
  5
178
330
1
100
AcDbSymbolTableRecord
100
AcDbBlockTableRecord
  2
SW_CENTERMARKSYMBOL_2
340
0
102
{BLKREFS
331
183
102
}
  0
BLOCK_RECORD
  5
184
330
1
100
AcDbSymbolTableRecord
100
AcDbBlockTableRecord
  2
SW_CENTERMARKSYMBOL_3
340
0
102
{BLKREFS
331
18F
102
}
  0
BLOCK_RECORD
  5
19A
330
1
100
AcDbSymbolTableRecord
100
AcDbBlockTableRecord
  2
_D_7
340
0
  0
ENDTAB
  0
ENDSEC
  0
SECTION
  2
BLOCKS
  0
BLOCK
  5
20
330
1F
100
AcDbEntity
  8
0
100
AcDbBlockBegin
  2
*Model_Space
 70
     0
 10
0.0
 20
0.0
 30
0.0
  3
*Model_Space
  1

  0
ENDBLK
  5
21
330
1F
100
AcDbEntity
  8
0
100
AcDbBlockEnd
  0
BLOCK
  5
1C
330
1B
100
AcDbEntity
 67
     1
  8
0
100
AcDbBlockBegin
  2
*Paper_Space
 70
     0
 10
0.0
 20
0.0
 30
0.0
  3
*Paper_Space
  1

  0
ENDBLK
  5
1D
330
1B
100
AcDbEntity
 67
     1
  8
0
100
AcDbBlockEnd
  0
BLOCK
  5
24
330
23
100
AcDbEntity
  8
0
100
AcDbBlockBegin
  2
*Paper_Space0
 70
     0
 10
0.0
 20
0.0
 30
0.0
  3
*Paper_Space0
  1

  0
ENDBLK
  5
25
330
23
100
AcDbEntity
  8
0
100
AcDbBlockEnd
  0
BLOCK
  5
BB
330
BA
100
AcDbEntity
  8
0
100
AcDbBlockBegin
  2
SW_NOTE_0
 70
     0
 10
0.0
 20
0.0
 30
0.0
  3
SW_NOTE_0
  1

  0
MTEXT
  5
BE
330
BA
100
AcDbEntity
  8
0
  6
Continuous
 62
     0
370
     0
100
AcDbMText
 10
0.0
 20
0.1879890454
 30
0.0
 40
0.1458333333
 41
0.0
 71
     1
 72
     1
  1
Aluminum 3003-H14
  7
SLDTEXTSTYLE0
 73
     1
 44
1.0
  0
MTEXT
  5
BF
330
BA
100
AcDbEntity
  8
0
  6
Continuous
 62
     0
370
     0
100
AcDbMText
 10
0.0
 20
-0.0064553967
 30
0.0
 40
0.1458333333
 41
0.0
 71
     1
 72
     1
  1
With Protective Peel-Off Film
  7
SLDTEXTSTYLE0
 73
     1
 44
1.0
  0
ENDBLK
  5
BC
330
BA
100
AcDbEntity
  8
0
100
AcDbBlockEnd
  0
BLOCK
  5
CB
330
CA
100
AcDbEntity
  8
0
100
AcDbBlockBegin
  2
SW_NOTE_1
 70
     0
 10
0.0
 20
0.0
 30
0.0
  3
SW_NOTE_1
  1

  0
MTEXT
  5
CD
330
CA
100
AcDbEntity
  8
0
  6
Continuous
 62
     0
370
     0
100
AcDbMText
 10
0.0
 20
0.0773440644
 30
0.0
 40
0.06
 41
0.0
 71
     1
 72
     1
  1
THIS MATERIAL IS OWNED BY THE ALLIED MOULDED
  7
SLDTEXTSTYLE1
 73
     1
 44
1.0
  0
MTEXT
  5
CE
330
CA
100
AcDbEntity
  8
0
  6
Continuous
 62
     0
370
     0
100
AcDbMText
 10
0.0
 20
-0.0220260102
 30
0.0
 40
0.06
 41
0.0
 71
     1
 72
     1
  1
PRODUCTS COMPANY, IS DISCLOSED IN CONFIDENCE,
  7
SLDTEXTSTYLE1
 73
     1
 44
1.0
  0
MTEXT
  5
CF
330
CA
100
AcDbEntity
  8
0
  6
Continuous
 62
     0
370
     0
100
AcDbMText
 10
0.0
 20
-0.1213960848
 30
0.0
 40
0.06
 41
0.0
 71
     1
 72
     1
  1
AND IS NOT TO BE REPRODUCED OR DISTRIBUTED
  7
SLDTEXTSTYLE1
 73
     1
 44
1.0
  0
MTEXT
  5
D0
330
CA
100
AcDbEntity
  8
0
  6
Continuous
 62
     0
370
     0
100
AcDbMText
 10
0.0
 20
-0.2207661593
 30
0.0
 40
0.06
 41
0.0
 71
     1
 72
     1
  1
WITHOUT PRIOR WRITTEN PERMISSION FROM
  7
SLDTEXTSTYLE1
 73
     1
 44
1.0
  0
MTEXT
  5
D1
330
CA
100
AcDbEntity
  8
0
  6
Continuous
 62
     0
370
     0
100
AcDbMText
 10
0.0
 20
-0.3201362339
 30
0.0
 40
0.06
 41
0.0
 71
     1
 72
     1
  1
ALLIED MOULDED PRODUCTS.
  7
SLDTEXTSTYLE1
 73
     1
 44
1.0
  0
ENDBLK
  5
CC
330
CA
100
AcDbEntity
  8
0
100
AcDbBlockEnd
  0
BLOCK
  5
E2
330
E1
100
AcDbEntity
  8
0
100
AcDbBlockBegin
  2
_D
 70
     0
 10
0.0
 20
0.0
 30
0.0
  3
_D
  1

  0
SOLID
  5
E4
330
E1
100
AcDbEntity
  8
0
  6
Continuous
 62
     7
370
     0
100
AcDbTrace
 10
5.6949991995
 20
8.3619758415
 30
0.0
 11
5.6009991995
 21
8.3819758415
 31
0.0
 12
5.6009991995
 22
8.3419758415
 32
0.0
 13
5.6009991995
 23
8.3419758415
 33
0.0
  0
SOLID
  5
E5
330
E1
100
AcDbEntity
  8
0
  6
Continuous
 62
     7
370
     0
100
AcDbTrace
 10
2.5699991995
 20
8.3619758415
 30
0.0
 11
2.6639991995
 21
8.3419758415
 31
0.0
 12
2.6639991995
 22
8.3819758415
 32
0.0
 13
2.6639991995
 23
8.3819758415
 33
0.0
  0
LINE
  5
E6
330
E1
100
AcDbEntity
  8
0
  6
Continuous
 62
     7
370
     0
100
AcDbLine
 10
4.2341950165
 20
8.4578959801
 30
0.0
 11
4.1912262679
 21
8.4578959801
 31
0.0
  0
LINE
  5
E7
330
E1
100
AcDbEntity
  8
0
  6
Continuous
 62
     7
370
     0
100
AcDbLine
 10
4.1912262679
 20
8.4578959801
 30
0.0
 11
4.1912262679
 21
8.2660557029
 31
0.0
  0
LINE
  5
E8
330
E1
100
AcDbEntity
  8
0
  6
Continuous
 62
     7
370
     0
100
AcDbLine
 10
4.1912262679
 20
8.2660557029
 30
0.0
 11
4.2341950165
 21
8.2660557029
 31
0.0
  0
LINE
  5
E9
330
E1
100
AcDbEntity
  8
0
  6
Continuous
 62
     7
370
     0
100
AcDbLine
 10
4.6638825394
 20
8.4578959801
 30
0.0
 11
4.706851288
 21
8.4578959801
 31
0.0
  0
LINE
  5
EA
330
E1
100
AcDbEntity
  8
0
  6
Continuous
 62
     7
370
     0
100
AcDbLine
 10
4.706851288
 20
8.4578959801
 30
0.0
 11
4.706851288
 21
8.2660557029
 31
0.0
  0
LINE
  5
EB
330
E1
100
AcDbEntity
  8
0
  6
Continuous
 62
     7
370
     0
100
AcDbLine
 10
4.706851288
 20
8.2660557029
 30
0.0
 11
4.6638825394
 21
8.2660557029
 31
0.0
  0
LINE
  5
EC
330
E1
100
AcDbEntity
  8
0
  6
Continuous
 62
     7
370
     0
100
AcDbLine
 10
5.6949991995
 20
7.5458341092
 30
0.0
 11
5.6949991995
 21
8.4869758415
 31
0.0
  0
LINE
  5
ED
330
E1
100
AcDbEntity
  8
0
  6
Continuous
 62
     7
370
     0
100
AcDbLine
 10
2.5699991995
 20
7.5458341092
 30
0.0
 11
2.5699991995
 21
8.4869758415
 31
0.0
  0
LINE
  5
EE
330
E1
100
AcDbEntity
  8
0
  6
Continuous
 62
     7
370
     0
100
AcDbLine
 10
5.6949991995
 20
8.3619758415
 30
0.0
 11
4.7783928569
 21
8.3619758415
 31
0.0
  0
LINE
  5
EF
330
E1
100
AcDbEntity
  8
0
  6
Continuous
 62
     7
370
     0
100
AcDbLine
 10
2.5699991995
 20
8.3619758415
 30
0.0
 11
3.7854832597
 21
8.3619758415
 31
0.0
  0
MTEXT
  5
F0
330
E1
100
AcDbEntity
  8
0
  6
Continuous
 62
     7
370
     0
100
AcDbMText
 10
3.8140561166
 20
8.427189175
 30
0.0
 40
0.125
 41
0.0
 71
     1
 72
     1
  1
3.13
  7
SLDTEXTSTYLE0
 73
     1
 44
1.0
  0
MTEXT
  5
F1
330
E1
100
AcDbEntity
  8
0
  6
Continuous
 62
     7
370
     0
100
AcDbMText
 10
4.2341950165
 20
8.427189175
 30
0.0
 40
0.125
 41
0.0
 71
     1
 72
     1
  1
79.38
  7
SLDTEXTSTYLE0
 73
     1
 44
1.0
  0
ENDBLK
  5
E3
330
E1
100
AcDbEntity
  8
0
100
AcDbBlockEnd
  0
BLOCK
  5
F5
330
F4
100
AcDbEntity
  8
0
100
AcDbBlockBegin
  2
_D_1
 70
     0
 10
0.0
 20
0.0
 30
0.0
  3
_D_1
  1

  0
SOLID
  5
F7
330
F4
100
AcDbEntity
  8
0
  6
Continuous
 62
     7
370
     0
100
AcDbTrace
 10
7.5060228216
 20
3.4958341092
 30
0.0
 11
7.5260228216
 21
3.5898341092
 31
0.0
 12
7.4860228216
 22
3.5898341092
 32
0.0
 13
7.4860228216
 23
3.5898341092
 33
0.0
  0
SOLID
  5
F8
330
F4
100
AcDbEntity
  8
0
  6
Continuous
 62
     7
370
     0
100
AcDbTrace
 10
7.5060228216
 20
7.4958341092
 30
0.0
 11
7.4860228216
 21
7.4018341092
 31
0.0
 12
7.5260228216
 22
7.4018341092
 32
0.0
 13
7.5260228216
 23
7.4018341092
 33
0.0
  0
LINE
  5
F9
330
F4
100
AcDbEntity
  8
0
  6
Continuous
 62
     7
370
     0
100
AcDbLine
 10
7.410536738
 20
5.2056012672
 30
0.0
 11
7.3675679893
 21
5.2056012672
 31
0.0
  0
LINE
  5
FA
330
F4
100
AcDbEntity
  8
0
  6
Continuous
 62
     7
370
     0
100
AcDbLine
 10
7.3675679893
 20
5.2056012672
 30
0.0
 11
7.3675679893
 21
5.01376099
 31
0.0
  0
LINE
  5
FB
330
F4
100
AcDbEntity
  8
0
  6
Continuous
 62
     7
370
     0
100
AcDbLine
 10
7.3675679893
 20
5.01376099
 30
0.0
 11
7.410536738
 21
5.01376099
 31
0.0
  0
LINE
  5
FC
330
F4
100
AcDbEntity
  8
0
  6
Continuous
 62
     7
370
     0
100
AcDbLine
 10
7.9357103444
 20
5.2056012672
 30
0.0
 11
7.9786790931
 21
5.2056012672
 31
0.0
  0
LINE
  5
FD
330
F4
100
AcDbEntity
  8
0
  6
Continuous
 62
     7
370
     0
100
AcDbLine
 10
7.9786790931
 20
5.2056012672
 30
0.0
 11
7.9786790931
 21
5.01376099
 31
0.0
  0
LINE
  5
FE
330
F4
100
AcDbEntity
  8
0
  6
Continuous
 62
     7
370
     0
100
AcDbLine
 10
7.9786790931
 20
5.01376099
 30
0.0
 11
7.9357103444
 21
5.01376099
 31
0.0
  0
LINE
  5
FF
330
F4
100
AcDbEntity
  8
0
  6
Continuous
 62
     7
370
     0
100
AcDbLine
 10
5.7449991995
 20
3.4958341092
 30
0.0
 11
7.6310228216
 21
3.4958341092
 31
0.0
  0
LINE
  5
100
330
F4
100
AcDbEntity
  8
0
  6
Continuous
 62
     7
370
     0
100
AcDbLine
 10
5.7449991995
 20
7.4958341092
 30
0.0
 11
7.6310228216
 21
7.4958341092
 31
0.0
  0
LINE
  5
101
330
F4
100
AcDbEntity
  8
0
  6
Continuous
 62
     7
370
     0
100
AcDbLine
 10
7.5060228216
 20
3.4958341092
 30
0.0
 11
7.5060228216
 21
4.9851151576
 31
0.0
  0
LINE
  5
102
330
F4
100
AcDbEntity
  8
0
  6
Continuous
 62
     7
370
     0
100
AcDbLine
 10
7.5060228216
 20
7.4958341092
 30
0.0
 11
7.5060228216
 21
5.2342470996
 31
0.0
  0
MTEXT
  5
103
330
F4
100
AcDbEntity
  8
0
  6
Continuous
 62
     7
370
     0
100
AcDbMText
 10
6.9903978381
 20
5.1748944621
 30
0.0
 40
0.125
 41
0.0
 71
     1
 72
     1
  1
4.00
  7
SLDTEXTSTYLE0
 73
     1
 44
1.0
  0
MTEXT
  5
104
330
F4
100
AcDbEntity
  8
0
  6
Continuous
 62
     7
370
     0
100
AcDbMText
 10
7.410536738
 20
5.1748944621
 30
0.0
 40
0.125
 41
0.0
 71
     1
 72
     1
  1
101.60
  7
SLDTEXTSTYLE0
 73
     1
 44
1.0
  0
ENDBLK
  5
F6
330
F4
100
AcDbEntity
  8
0
100
AcDbBlockEnd
  0
BLOCK
  5
108
330
107
100
AcDbEntity
  8
0
100
AcDbBlockBegin
  2
_D_2
 70
     0
 10
0.0
 20
0.0
 30
0.0
  3
_D_2
  1

  0
SOLID
  5
10A
330
107
100
AcDbEntity
  8
0
  6
Continuous
 62
     7
370
     0
100
AcDbTrace
 10
2.8611196404
 20
3.6138880378
 30
0.0
 11
2.87805909
 21
3.5192885925
 31
0.0
 12
2.9151035199
 22
3.5343786626
 32
0.0
 13
2.9151035199
 23
3.5343786626
 33
0.0
  0
LINE
  5
10B
330
107
100
AcDbEntity
  8
0
  6
Continuous
 62
     7
370
     0
100
AcDbLine
 10
3.7264629944
 20
3.1367334248
 30
0.0
 11
3.6834942457
 21
3.1367334248
 31
0.0
  0
LINE
  5
10C
330
107
100
AcDbEntity
  8
0
  6
Continuous
 62
     7
370
     0
100
AcDbLine
 10
3.6834942457
 20
3.1367334248
 30
0.0
 11
3.6834942457
 21
2.9448931477
 31
0.0
  0
LINE
  5
10D
330
107
100
AcDbEntity
  8
0
  6
Continuous
 62
     7
370
     0
100
AcDbLine
 10
3.6834942457
 20
2.9448931477
 30
0.0
 11
3.7264629944
 21
2.9448931477
 31
0.0
  0
LINE
  5
10E
330
107
100
AcDbEntity
  8
0
  6
Continuous
 62
     7
370
     0
100
AcDbLine
 10
4.060664397
 20
3.1367334248
 30
0.0
 11
4.1036331456
 21
3.1367334248
 31
0.0
  0
LINE
  5
10F
330
107
100
AcDbEntity
  8
0
  6
Continuous
 62
     7
370
     0
100
AcDbLine
 10
4.1036331456
 20
3.1367334248
 30
0.0
 11
4.1036331456
 21
2.9448931477
 31
0.0
  0
LINE
  5
110
330
107
100
AcDbEntity
  8
0
  6
Continuous
 62
     7
370
     0
100
AcDbLine
 10
4.1036331456
 20
2.9448931477
 30
0.0
 11
4.060664397
 21
2.9448931477
 31
0.0
  0
LINE
  5
111
330
107
100
AcDbEntity
  8
0
  6
Continuous
 62
     7
370
     0
100
AcDbLine
 10
2.8611196404
 20
3.6138880378
 30
0.0
 11
3.0945619734
 21
3.0408132863
 31
0.0
  0
LINE
  5
112
330
107
100
AcDbEntity
  8
0
  6
Continuous
 62
     7
370
     0
100
AcDbLine
 10
3.0945619734
 20
3.0408132863
 30
0.0
 11
3.2195619734
 21
3.0408132863
 31
0.0
  0
MTEXT
  5
113
330
107
100
AcDbEntity
  8
0
  6
Continuous
 62
     7
370
     0
100
AcDbMText
 10
3.2195619734
 20
3.1056793973
 30
0.0
 40
0.125
 41
0.0
 71
     1
 72
     1
  1
%%c
  7
SLDTEXTSTYLE0
 73
     1
 44
1.0
  0
MTEXT
  5
114
330
107
100
AcDbEntity
  8
0
  6
Continuous
 62
     7
370
     0
100
AcDbMText
 10
3.4018102331
 20
3.1060266197
 30
0.0
 40
0.125
 41
0.0
 71
     1
 72
     1
  1
.22
  7
SLDTEXTSTYLE0
 73
     1
 44
1.0
  0
MTEXT
  5
115
330
107
100
AcDbEntity
  8
0
  6
Continuous
 62
     7
370
     0
100
AcDbMText
 10
3.7264629944
 20
3.1060266197
 30
0.0
 40
0.125
 41
0.0
 71
     1
 72
     1
  1
5.54
  7
SLDTEXTSTYLE0
 73
     1
 44
1.0
  0
MTEXT
  5
116
330
107
100
AcDbEntity
  8
0
  6
Continuous
 62
     7
370
     0
100
AcDbMText
 10
4.1934769309
 20
3.1060266197
 30
0.0
 40
0.125
 41
0.0
 71
     1
 72
     1
  1
4x
  7
SLDTEXTSTYLE0
 73
     1
 44
1.0
  0
ENDBLK
  5
109
330
107
100
AcDbEntity
  8
0
100
AcDbBlockEnd
  0
BLOCK
  5
119
330
118
100
AcDbEntity
  8
0
100
AcDbBlockBegin
  2
_D_3
 70
     0
 10
0.0
 20
0.0
 30
0.0
  3
_D_3
  1

  0
SOLID
  5
11B
330
118
100
AcDbEntity
  8
0
  6
Continuous
 62
     7
370
     0
100
AcDbTrace
 10
1.7038574672
 20
7.2768341092
 30
0.0
 11
1.7238574672
 21
7.3708341092
 31
0.0
 12
1.6838574672
 22
7.3708341092
 32
0.0
 13
1.6838574672
 23
7.3708341092
 33
0.0
  0
SOLID
  5
11C
330
118
100
AcDbEntity
  8
0
  6
Continuous
 62
     7
370
     0
100
AcDbTrace
 10
1.7038574672
 20
7.4958341092
 30
0.0
 11
1.6838574672
 21
7.4018341092
 31
0.0
 12
1.7238574672
 22
7.4018341092
 32
0.0
 13
1.7238574672
 23
7.4018341092
 33
0.0
  0
LINE
  5
11D
330
118
100
AcDbEntity
  8
0
  6
Continuous
 62
     7
370
     0
100
AcDbLine
 10
1.1301456737
 20
7.2382499231
 30
0.0
 11
1.0871769251
 21
7.2382499231
 31
0.0
  0
LINE
  5
11E
330
118
100
AcDbEntity
  8
0
  6
Continuous
 62
     7
370
     0
100
AcDbLine
 10
1.0871769251
 20
7.2382499231
 30
0.0
 11
1.0871769251
 21
7.0464096459
 31
0.0
  0
LINE
  5
11F
330
118
100
AcDbEntity
  8
0
  6
Continuous
 62
     7
370
     0
100
AcDbLine
 10
1.0871769251
 20
7.0464096459
 30
0.0
 11
1.1301456737
 21
7.0464096459
 31
0.0
  0
LINE
  5
120
330
118
100
AcDbEntity
  8
0
  6
Continuous
 62
     7
370
     0
100
AcDbLine
 10
1.4643470763
 20
7.2382499231
 30
0.0
 11
1.507315825
 21
7.2382499231
 31
0.0
  0
LINE
  5
121
330
118
100
AcDbEntity
  8
0
  6
Continuous
 62
     7
370
     0
100
AcDbLine
 10
1.507315825
 20
7.2382499231
 30
0.0
 11
1.507315825
 21
7.0464096459
 31
0.0
  0
LINE
  5
122
330
118
100
AcDbEntity
  8
0
  6
Continuous
 62
     7
370
     0
100
AcDbLine
 10
1.507315825
 20
7.0464096459
 30
0.0
 11
1.4643470763
 21
7.0464096459
 31
0.0
  0
LINE
  5
123
330
118
100
AcDbEntity
  8
0
  6
Continuous
 62
     7
370
     0
100
AcDbLine
 10
2.5609991995
 20
7.2768341092
 30
0.0
 11
1.5788574672
 21
7.2768341092
 31
0.0
  0
LINE
  5
124
330
118
100
AcDbEntity
  8
0
  6
Continuous
 62
     7
370
     0
100
AcDbLine
 10
2.5199991995
 20
7.4958341092
 30
0.0
 11
1.5788574672
 21
7.4958341092
 31
0.0
  0
LINE
  5
125
330
118
100
AcDbEntity
  8
0
  6
Continuous
 62
     7
370
     0
100
AcDbLine
 10
1.5788574672
 20
7.1423297845
 30
0.0
 11
1.7038574672
 21
7.1423297845
 31
0.0
  0
LINE
  5
126
330
118
100
AcDbEntity
  8
0
  6
Continuous
 62
     7
370
     0
100
AcDbLine
 10
1.7038574672
 20
7.1423297845
 30
0.0
 11
1.7038574672
 21
7.2768341092
 31
0.0
  0
LINE
  5
127
330
118
100
AcDbEntity
  8
0
  6
Continuous
 62
     7
370
     0
100
AcDbLine
 10
1.7038574672
 20
7.2768341092
 30
0.0
 11
1.7038574672
 21
7.4958341092
 31
0.0
  0
MTEXT
  5
128
330
118
100
AcDbEntity
  8
0
  6
Continuous
 62
     7
370
     0
100
AcDbMText
 10
0.8054928942
 20
7.207543118
 30
0.0
 40
0.125
 41
0.0
 71
     1
 72
     1
  1
.22
  7
SLDTEXTSTYLE0
 73
     1
 44
1.0
  0
MTEXT
  5
129
330
118
100
AcDbEntity
  8
0
  6
Continuous
 62
     7
370
     0
100
AcDbMText
 10
1.1301456737
 20
7.207543118
 30
0.0
 40
0.125
 41
0.0
 71
     1
 72
     1
  1
5.56
  7
SLDTEXTSTYLE0
 73
     1
 44
1.0
  0
ENDBLK
  5
11A
330
118
100
AcDbEntity
  8
0
100
AcDbBlockEnd
  0
BLOCK
  5
12C
330
12B
100
AcDbEntity
  8
0
100
AcDbBlockBegin
  2
_D_4
 70
     0
 10
0.0
 20
0.0
 30
0.0
  3
_D_4
  1

  0
SOLID
  5
12E
330
12B
100
AcDbEntity
  8
0
  6
Continuous
 62
     7
370
     0
100
AcDbTrace
 10
2.5699991995
 20
7.8895348966
 30
0.0
 11
2.6639991995
 21
7.8695348966
 31
0.0
 12
2.6639991995
 22
7.9095348966
 32
0.0
 13
2.6639991995
 23
7.9095348966
 33
0.0
  0
SOLID
  5
12F
330
12B
100
AcDbEntity
  8
0
  6
Continuous
 62
     7
370
     0
100
AcDbTrace
 10
2.8199991995
 20
7.8895348966
 30
0.0
 11
2.7259991995
 21
7.9095348966
 31
0.0
 12
2.7259991995
 22
7.8695348966
 32
0.0
 13
2.7259991995
 23
7.8695348966
 33
0.0
  0
LINE
  5
130
330
12B
100
AcDbEntity
  8
0
  6
Continuous
 62
     7
370
     0
100
AcDbLine
 10
1.6561143888
 20
7.9854550352
 30
0.0
 11
1.6131456401
 21
7.9854550352
 31
0.0
  0
LINE
  5
131
330
12B
100
AcDbEntity
  8
0
  6
Continuous
 62
     7
370
     0
100
AcDbLine
 10
1.6131456401
 20
7.9854550352
 30
0.0
 11
1.6131456401
 21
7.793614758
 31
0.0
  0
LINE
  5
132
330
12B
100
AcDbEntity
  8
0
  6
Continuous
 62
     7
370
     0
100
AcDbLine
 10
1.6131456401
 20
7.793614758
 30
0.0
 11
1.6561143888
 21
7.793614758
 31
0.0
  0
LINE
  5
133
330
12B
100
AcDbEntity
  8
0
  6
Continuous
 62
     7
370
     0
100
AcDbLine
 10
1.9903157914
 20
7.9854550352
 30
0.0
 11
2.03328454
 21
7.9854550352
 31
0.0
  0
LINE
  5
134
330
12B
100
AcDbEntity
  8
0
  6
Continuous
 62
     7
370
     0
100
AcDbLine
 10
2.03328454
 20
7.9854550352
 30
0.0
 11
2.03328454
 21
7.793614758
 31
0.0
  0
LINE
  5
135
330
12B
100
AcDbEntity
  8
0
  6
Continuous
 62
     7
370
     0
100
AcDbLine
 10
2.03328454
 20
7.793614758
 30
0.0
 11
1.9903157914
 21
7.793614758
 31
0.0
  0
LINE
  5
136
330
12B
100
AcDbEntity
  8
0
  6
Continuous
 62
     7
370
     0
100
AcDbLine
 10
2.5699991995
 20
7.5458341092
 30
0.0
 11
2.5699991995
 21
8.0145348966
 31
0.0
  0
LINE
  5
137
330
12B
100
AcDbEntity
  8
0
  6
Continuous
 62
     7
370
     0
100
AcDbLine
 10
2.8199991995
 20
7.5358341092
 30
0.0
 11
2.8199991995
 21
8.0145348966
 31
0.0
  0
LINE
  5
138
330
12B
100
AcDbEntity
  8
0
  6
Continuous
 62
     7
370
     0
100
AcDbLine
 10
2.5699991995
 20
7.8895348966
 30
0.0
 11
2.1048261823
 21
7.8895348966
 31
0.0
  0
LINE
  5
139
330
12B
100
AcDbEntity
  8
0
  6
Continuous
 62
     7
370
     0
100
AcDbLine
 10
2.8199991995
 20
7.8895348966
 30
0.0
 11
2.5699991995
 21
7.8895348966
 31
0.0
  0
MTEXT
  5
13A
330
12B
100
AcDbEntity
  8
0
  6
Continuous
 62
     7
370
     0
100
AcDbMText
 10
1.3314616092
 20
7.9547482301
 30
0.0
 40
0.125
 41
0.0
 71
     1
 72
     1
  1
.25
  7
SLDTEXTSTYLE0
 73
     1
 44
1.0
  0
MTEXT
  5
13B
330
12B
100
AcDbEntity
  8
0
  6
Continuous
 62
     7
370
     0
100
AcDbMText
 10
1.6561143888
 20
7.9547482301
 30
0.0
 40
0.125
 41
0.0
 71
     1
 72
     1
  1
6.35
  7
SLDTEXTSTYLE0
 73
     1
 44
1.0
  0
ENDBLK
  5
12D
330
12B
100
AcDbEntity
  8
0
100
AcDbBlockEnd
  0
BLOCK
  5
13E
330
13D
100
AcDbEntity
  8
0
100
AcDbBlockBegin
  2
_D_5
 70
     0
 10
0.0
 20
0.0
 30
0.0
  3
_D_5
  1

  0
SOLID
  5
140
330
13D
100
AcDbEntity
  8
0
  6
Continuous
 62
     7
370
     0
100
AcDbTrace
 10
2.8199991995
 20
8.0342519613
 30
0.0
 11
2.9139991995
 21
8.0142519613
 31
0.0
 12
2.9139991995
 22
8.0542519613
 32
0.0
 13
2.9139991995
 23
8.0542519613
 33
0.0
  0
SOLID
  5
141
330
13D
100
AcDbEntity
  8
0
  6
Continuous
 62
     7
370
     0
100
AcDbTrace
 10
5.4449991995
 20
8.0342519613
 30
0.0
 11
5.3509991995
 21
8.0542519613
 31
0.0
 12
5.3509991995
 22
8.0142519613
 32
0.0
 13
5.3509991995
 23
8.0142519613
 33
0.0
  0
LINE
  5
142
330
13D
100
AcDbEntity
  8
0
  6
Continuous
 62
     7
370
     0
100
AcDbLine
 10
4.1676137989
 20
8.1301720998
 30
0.0
 11
4.1246450503
 21
8.1301720998
 31
0.0
  0
LINE
  5
143
330
13D
100
AcDbEntity
  8
0
  6
Continuous
 62
     7
370
     0
100
AcDbLine
 10
4.1246450503
 20
8.1301720998
 30
0.0
 11
4.1246450503
 21
7.9383318227
 31
0.0
  0
LINE
  5
144
330
13D
100
AcDbEntity
  8
0
  6
Continuous
 62
     7
370
     0
100
AcDbLine
 10
4.1246450503
 20
7.9383318227
 30
0.0
 11
4.1676137989
 21
7.9383318227
 31
0.0
  0
LINE
  5
145
330
13D
100
AcDbEntity
  8
0
  6
Continuous
 62
     7
370
     0
100
AcDbLine
 10
4.5973013218
 20
8.1301720998
 30
0.0
 11
4.6402700704
 21
8.1301720998
 31
0.0
  0
LINE
  5
146
330
13D
100
AcDbEntity
  8
0
  6
Continuous
 62
     7
370
     0
100
AcDbLine
 10
4.6402700704
 20
8.1301720998
 30
0.0
 11
4.6402700704
 21
7.9383318227
 31
0.0
  0
LINE
  5
147
330
13D
100
AcDbEntity
  8
0
  6
Continuous
 62
     7
370
     0
100
AcDbLine
 10
4.6402700704
 20
7.9383318227
 30
0.0
 11
4.5973013218
 21
7.9383318227
 31
0.0
  0
LINE
  5
148
330
13D
100
AcDbEntity
  8
0
  6
Continuous
 62
     7
370
     0
100
AcDbLine
 10
2.8199991995
 20
7.5358341092
 30
0.0
 11
2.8199991995
 21
8.1592519613
 31
0.0
  0
LINE
  5
149
330
13D
100
AcDbEntity
  8
0
  6
Continuous
 62
     7
370
     0
100
AcDbLine
 10
5.4449991995
 20
7.5358341092
 30
0.0
 11
5.4449991995
 21
8.1592519613
 31
0.0
  0
LINE
  5
14A
330
13D
100
AcDbEntity
  8
0
  6
Continuous
 62
     7
370
     0
100
AcDbLine
 10
2.8199991995
 20
8.0342519613
 30
0.0
 11
3.7189020421
 21
8.0342519613
 31
0.0
  0
LINE
  5
14B
330
13D
100
AcDbEntity
  8
0
  6
Continuous
 62
     7
370
     0
100
AcDbLine
 10
5.4449991995
 20
8.0342519613
 30
0.0
 11
4.7118116394
 21
8.0342519613
 31
0.0
  0
MTEXT
  5
14C
330
13D
100
AcDbEntity
  8
0
  6
Continuous
 62
     7
370
     0
100
AcDbMText
 10
3.7474748991
 20
8.0994652947
 30
0.0
 40
0.125
 41
0.0
 71
     1
 72
     1
  1
2.63
  7
SLDTEXTSTYLE0
 73
     1
 44
1.0
  0
MTEXT
  5
14D
330
13D
100
AcDbEntity
  8
0
  6
Continuous
 62
     7
370
     0
100
AcDbMText
 10
4.1676137989
 20
8.0994652947
 30
0.0
 40
0.125
 41
0.0
 71
     1
 72
     1
  1
66.68
  7
SLDTEXTSTYLE0
 73
     1
 44
1.0
  0
ENDBLK
  5
13F
330
13D
100
AcDbEntity
  8
0
100
AcDbBlockEnd
  0
BLOCK
  5
150
330
14F
100
AcDbEntity
  8
0
100
AcDbBlockBegin
  2
_D_6
 70
     0
 10
0.0
 20
0.0
 30
0.0
  3
_D_6
  1

  0
SOLID
  5
152
330
14F
100
AcDbEntity
  8
0
  6
Continuous
 62
     7
370
     0
100
AcDbTrace
 10
6.5611409318
 20
7.2768341092
 30
0.0
 11
6.5411409318
 21
7.1828341092
 31
0.0
 12
6.5811409318
 22
7.1828341092
 32
0.0
 13
6.5811409318
 23
7.1828341092
 33
0.0
  0
SOLID
  5
153
330
14F
100
AcDbEntity
  8
0
  6
Continuous
 62
     7
370
     0
100
AcDbTrace
 10
6.5611409318
 20
3.7148341092
 30
0.0
 11
6.5811409318
 21
3.8088341092
 31
0.0
 12
6.5411409318
 22
3.8088341092
 32
0.0
 13
6.5411409318
 23
3.8088341092
 33
0.0
  0
LINE
  5
154
330
14F
100
AcDbEntity
  8
0
  6
Continuous
 62
     7
370
     0
100
AcDbLine
 10
6.51339789
 20
5.7387423058
 30
0.0
 11
6.4704291414
 21
5.7387423058
 31
0.0
  0
LINE
  5
155
330
14F
100
AcDbEntity
  8
0
  6
Continuous
 62
     7
370
     0
100
AcDbLine
 10
6.4704291414
 20
5.7387423058
 30
0.0
 11
6.4704291414
 21
5.5469020286
 31
0.0
  0
LINE
  5
156
330
14F
100
AcDbEntity
  8
0
  6
Continuous
 62
     7
370
     0
100
AcDbLine
 10
6.4704291414
 20
5.5469020286
 30
0.0
 11
6.51339789
 21
5.5469020286
 31
0.0
  0
LINE
  5
157
330
14F
100
AcDbEntity
  8
0
  6
Continuous
 62
     7
370
     0
100
AcDbLine
 10
6.9430854129
 20
5.7387423058
 30
0.0
 11
6.9860541615
 21
5.7387423058
 31
0.0
  0
LINE
  5
158
330
14F
100
AcDbEntity
  8
0
  6
Continuous
 62
     7
370
     0
100
AcDbLine
 10
6.9860541615
 20
5.7387423058
 30
0.0
 11
6.9860541615
 21
5.5469020286
 31
0.0
  0
LINE
  5
159
330
14F
100
AcDbEntity
  8
0
  6
Continuous
 62
     7
370
     0
100
AcDbLine
 10
6.9860541615
 20
5.5469020286
 30
0.0
 11
6.9430854129
 21
5.5469020286
 31
0.0
  0
LINE
  5
15A
330
14F
100
AcDbEntity
  8
0
  6
Continuous
 62
     7
370
     0
100
AcDbLine
 10
5.7039991995
 20
7.2768341092
 30
0.0
 11
6.6861409318
 21
7.2768341092
 31
0.0
  0
LINE
  5
15B
330
14F
100
AcDbEntity
  8
0
  6
Continuous
 62
     7
370
     0
100
AcDbLine
 10
5.7039991995
 20
3.7148341092
 30
0.0
 11
6.6861409318
 21
3.7148341092
 31
0.0
  0
LINE
  5
15C
330
14F
100
AcDbEntity
  8
0
  6
Continuous
 62
     7
370
     0
100
AcDbLine
 10
6.5611409318
 20
7.2768341092
 30
0.0
 11
6.5611409318
 21
5.7673881382
 31
0.0
  0
LINE
  5
15D
330
14F
100
AcDbEntity
  8
0
  6
Continuous
 62
     7
370
     0
100
AcDbLine
 10
6.5611409318
 20
3.7148341092
 30
0.0
 11
6.5611409318
 21
5.5182561962
 31
0.0
  0
MTEXT
  5
15E
330
14F
100
AcDbEntity
  8
0
  6
Continuous
 62
     7
370
     0
100
AcDbMText
 10
6.0932589901
 20
5.7080355006
 30
0.0
 40
0.125
 41
0.0
 71
     1
 72
     1
  1
3.56
  7
SLDTEXTSTYLE0
 73
     1
 44
1.0
  0
MTEXT
  5
15F
330
14F
100
AcDbEntity
  8
0
  6
Continuous
 62
     7
370
     0
100
AcDbMText
 10
6.51339789
 20
5.7080355006
 30
0.0
 40
0.125
 41
0.0
 71
     1
 72
     1
  1
90.47
  7
SLDTEXTSTYLE0
 73
     1
 44
1.0
  0
ENDBLK
  5
151
330
14F
100
AcDbEntity
  8
0
100
AcDbBlockEnd
  0
BLOCK
  5
161
330
160
100
AcDbEntity
  8
0
100
AcDbBlockBegin
  2
SW_CENTERMARKSYMBOL_0
 70
     0
 10
0.0
 20
0.0
 30
0.0
  3
SW_CENTERMARKSYMBOL_0
  1

  0
LINE
  5
163
330
160
100
AcDbEntity
  8
0
  6
Continuous
 62
     0
370
     0
100
AcDbLine
 10
0.0
 20
0.0
 30
0.0
 11
0.0
 21
0.1
 31
0.0
  0
LINE
  5
164
330
160
100
AcDbEntity
  8
0
  6
Continuous
 62
     0
370
     0
100
AcDbLine
 10
0.0
 20
0.0
 30
0.0
 11
-0.1
 21
0.0
 31
0.0
  0
LINE
  5
165
330
160
100
AcDbEntity
  8
0
  6
Continuous
 62
     0
370
     0
100
AcDbLine
 10
0.0
 20
0.0
 30
0.0
 11
0.0
 21
-0.1
 31
0.0
  0
LINE
  5
166
330
160
100
AcDbEntity
  8
0
  6
Continuous
 62
     0
370
     0
100
AcDbLine
 10
0.0
 20
0.0
 30
0.0
 11
0.1
 21
0.0
 31
0.0
  0
LINE
  5
167
330
160
100
AcDbEntity
  8
0
  6
Continuous
 62
     0
370
     0
100
AcDbLine
 10
0.0
 20
0.2
 30
0.0
 11
0.0
 21
0.209
 31
0.0
  0
LINE
  5
168
330
160
100
AcDbEntity
  8
0
  6
Continuous
 62
     0
370
     0
100
AcDbLine
 10
-0.2
 20
0.0
 30
0.0
 11
-0.209
 21
0.0
 31
0.0
  0
LINE
  5
169
330
160
100
AcDbEntity
  8
0
  6
Continuous
 62
     0
370
     0
100
AcDbLine
 10
0.0
 20
-0.2
 30
0.0
 11
0.0
 21
-0.209
 31
0.0
  0
LINE
  5
16A
330
160
100
AcDbEntity
  8
0
  6
Continuous
 62
     0
370
     0
100
AcDbLine
 10
0.2
 20
0.0
 30
0.0
 11
0.209
 21
0.0
 31
0.0
  0
ENDBLK
  5
162
330
160
100
AcDbEntity
  8
0
100
AcDbBlockEnd
  0
BLOCK
  5
16D
330
16C
100
AcDbEntity
  8
0
100
AcDbBlockBegin
  2
SW_CENTERMARKSYMBOL_1
 70
     0
 10
0.0
 20
0.0
 30
0.0
  3
SW_CENTERMARKSYMBOL_1
  1

  0
LINE
  5
16F
330
16C
100
AcDbEntity
  8
0
  6
Continuous
 62
     0
370
     0
100
AcDbLine
 10
0.0
 20
0.0
 30
0.0
 11
0.0
 21
0.1
 31
0.0
  0
LINE
  5
170
330
16C
100
AcDbEntity
  8
0
  6
Continuous
 62
     0
370
     0
100
AcDbLine
 10
0.0
 20
0.0
 30
0.0
 11
-0.1
 21
0.0
 31
0.0
  0
LINE
  5
171
330
16C
100
AcDbEntity
  8
0
  6
Continuous
 62
     0
370
     0
100
AcDbLine
 10
0.0
 20
0.0
 30
0.0
 11
0.0
 21
-0.1
 31
0.0
  0
LINE
  5
172
330
16C
100
AcDbEntity
  8
0
  6
Continuous
 62
     0
370
     0
100
AcDbLine
 10
0.0
 20
0.0
 30
0.0
 11
0.1
 21
0.0
 31
0.0
  0
LINE
  5
173
330
16C
100
AcDbEntity
  8
0
  6
Continuous
 62
     0
370
     0
100
AcDbLine
 10
0.0
 20
0.2
 30
0.0
 11
0.0
 21
0.209
 31
0.0
  0
LINE
  5
174
330
16C
100
AcDbEntity
  8
0
  6
Continuous
 62
     0
370
     0
100
AcDbLine
 10
-0.2
 20
0.0
 30
0.0
 11
-0.209
 21
0.0
 31
0.0
  0
LINE
  5
175
330
16C
100
AcDbEntity
  8
0
  6
Continuous
 62
     0
370
     0
100
AcDbLine
 10
0.0
 20
-0.2
 30
0.0
 11
0.0
 21
-0.209
 31
0.0
  0
LINE
  5
176
330
16C
100
AcDbEntity
  8
0
  6
Continuous
 62
     0
370
     0
100
AcDbLine
 10
0.2
 20
0.0
 30
0.0
 11
0.209
 21
0.0
 31
0.0
  0
ENDBLK
  5
16E
330
16C
100
AcDbEntity
  8
0
100
AcDbBlockEnd
  0
BLOCK
  5
179
330
178
100
AcDbEntity
  8
0
100
AcDbBlockBegin
  2
SW_CENTERMARKSYMBOL_2
 70
     0
 10
0.0
 20
0.0
 30
0.0
  3
SW_CENTERMARKSYMBOL_2
  1

  0
LINE
  5
17B
330
178
100
AcDbEntity
  8
0
  6
Continuous
 62
     0
370
     0
100
AcDbLine
 10
0.0
 20
0.0
 30
0.0
 11
0.0
 21
0.1
 31
0.0
  0
LINE
  5
17C
330
178
100
AcDbEntity
  8
0
  6
Continuous
 62
     0
370
     0
100
AcDbLine
 10
0.0
 20
0.0
 30
0.0
 11
-0.1
 21
0.0
 31
0.0
  0
LINE
  5
17D
330
178
100
AcDbEntity
  8
0
  6
Continuous
 62
     0
370
     0
100
AcDbLine
 10
0.0
 20
0.0
 30
0.0
 11
0.0
 21
-0.1
 31
0.0
  0
LINE
  5
17E
330
178
100
AcDbEntity
  8
0
  6
Continuous
 62
     0
370
     0
100
AcDbLine
 10
0.0
 20
0.0
 30
0.0
 11
0.1
 21
0.0
 31
0.0
  0
LINE
  5
17F
330
178
100
AcDbEntity
  8
0
  6
Continuous
 62
     0
370
     0
100
AcDbLine
 10
0.0
 20
0.2
 30
0.0
 11
0.0
 21
0.209
 31
0.0
  0
LINE
  5
180
330
178
100
AcDbEntity
  8
0
  6
Continuous
 62
     0
370
     0
100
AcDbLine
 10
-0.2
 20
0.0
 30
0.0
 11
-0.209
 21
0.0
 31
0.0
  0
LINE
  5
181
330
178
100
AcDbEntity
  8
0
  6
Continuous
 62
     0
370
     0
100
AcDbLine
 10
0.0
 20
-0.2
 30
0.0
 11
0.0
 21
-0.209
 31
0.0
  0
LINE
  5
182
330
178
100
AcDbEntity
  8
0
  6
Continuous
 62
     0
370
     0
100
AcDbLine
 10
0.2
 20
0.0
 30
0.0
 11
0.209
 21
0.0
 31
0.0
  0
ENDBLK
  5
17A
330
178
100
AcDbEntity
  8
0
100
AcDbBlockEnd
  0
BLOCK
  5
185
330
184
100
AcDbEntity
  8
0
100
AcDbBlockBegin
  2
SW_CENTERMARKSYMBOL_3
 70
     0
 10
0.0
 20
0.0
 30
0.0
  3
SW_CENTERMARKSYMBOL_3
  1

  0
LINE
  5
187
330
184
100
AcDbEntity
  8
0
  6
Continuous
 62
     0
370
     0
100
AcDbLine
 10
0.0
 20
0.0
 30
0.0
 11
0.0
 21
0.1
 31
0.0
  0
LINE
  5
188
330
184
100
AcDbEntity
  8
0
  6
Continuous
 62
     0
370
     0
100
AcDbLine
 10
0.0
 20
0.0
 30
0.0
 11
-0.1
 21
0.0
 31
0.0
  0
LINE
  5
189
330
184
100
AcDbEntity
  8
0
  6
Continuous
 62
     0
370
     0
100
AcDbLine
 10
0.0
 20
0.0
 30
0.0
 11
0.0
 21
-0.1
 31
0.0
  0
LINE
  5
18A
330
184
100
AcDbEntity
  8
0
  6
Continuous
 62
     0
370
     0
100
AcDbLine
 10
0.0
 20
0.0
 30
0.0
 11
0.1
 21
0.0
 31
0.0
  0
LINE
  5
18B
330
184
100
AcDbEntity
  8
0
  6
Continuous
 62
     0
370
     0
100
AcDbLine
 10
0.0
 20
0.2
 30
0.0
 11
0.0
 21
0.209
 31
0.0
  0
LINE
  5
18C
330
184
100
AcDbEntity
  8
0
  6
Continuous
 62
     0
370
     0
100
AcDbLine
 10
-0.2
 20
0.0
 30
0.0
 11
-0.209
 21
0.0
 31
0.0
  0
LINE
  5
18D
330
184
100
AcDbEntity
  8
0
  6
Continuous
 62
     0
370
     0
100
AcDbLine
 10
0.0
 20
-0.2
 30
0.0
 11
0.0
 21
-0.209
 31
0.0
  0
LINE
  5
18E
330
184
100
AcDbEntity
  8
0
  6
Continuous
 62
     0
370
     0
100
AcDbLine
 10
0.2
 20
0.0
 30
0.0
 11
0.209
 21
0.0
 31
0.0
  0
ENDBLK
  5
186
330
184
100
AcDbEntity
  8
0
100
AcDbBlockEnd
  0
BLOCK
  5
19B
330
19A
100
AcDbEntity
  8
0
100
AcDbBlockBegin
  2
_D_7
 70
     0
 10
0.0
 20
0.0
 30
0.0
  3
_D_7
  1

  0
SOLID
  5
19D
330
19A
100
AcDbEntity
  8
0
  6
Continuous
 62
     7
370
     0
100
AcDbTrace
 10
8.4867620264
 20
7.8895348966
 30
0.0
 11
8.5807620264
 21
7.8695348966
 31
0.0
 12
8.5807620264
 22
7.9095348966
 32
0.0
 13
8.5807620264
 23
7.9095348966
 33
0.0
  0
SOLID
  5
19E
330
19A
100
AcDbEntity
  8
0
  6
Continuous
 62
     7
370
     0
100
AcDbTrace
 10
8.3867620264
 20
7.8895348966
 30
0.0
 11
8.2927620264
 21
7.9095348966
 31
0.0
 12
8.2927620264
 22
7.8695348966
 32
0.0
 13
8.2927620264
 23
7.8695348966
 33
0.0
  0
LINE
  5
19F
330
19A
100
AcDbEntity
  8
0
  6
Continuous
 62
     7
370
     0
100
AcDbLine
 10
9.3529037587
 20
7.9854550352
 30
0.0
 11
9.3099350101
 21
7.9854550352
 31
0.0
  0
LINE
  5
1A0
330
19A
100
AcDbEntity
  8
0
  6
Continuous
 62
     7
370
     0
100
AcDbLine
 10
9.3099350101
 20
7.9854550352
 30
0.0
 11
9.3099350101
 21
7.793614758
 31
0.0
  0
LINE
  5
1A1
330
19A
100
AcDbEntity
  8
0
  6
Continuous
 62
     7
370
     0
100
AcDbLine
 10
9.3099350101
 20
7.793614758
 30
0.0
 11
9.3529037587
 21
7.793614758
 31
0.0
  0
LINE
  5
1A2
330
19A
100
AcDbEntity
  8
0
  6
Continuous
 62
     7
370
     0
100
AcDbLine
 10
9.6871051613
 20
7.9854550352
 30
0.0
 11
9.7300739099
 21
7.9854550352
 31
0.0
  0
LINE
  5
1A3
330
19A
100
AcDbEntity
  8
0
  6
Continuous
 62
     7
370
     0
100
AcDbLine
 10
9.7300739099
 20
7.9854550352
 30
0.0
 11
9.7300739099
 21
7.793614758
 31
0.0
  0
LINE
  5
1A4
330
19A
100
AcDbEntity
  8
0
  6
Continuous
 62
     7
370
     0
100
AcDbLine
 10
9.7300739099
 20
7.793614758
 30
0.0
 11
9.6871051613
 21
7.793614758
 31
0.0
  0
LINE
  5
1A5
330
19A
100
AcDbEntity
  8
0
  6
Continuous
 62
     7
370
     0
100
AcDbLine
 10
8.4867620264
 20
7.5458341092
 30
0.0
 11
8.4867620264
 21
8.0145348966
 31
0.0
  0
LINE
  5
1A6
330
19A
100
AcDbEntity
  8
0
  6
Continuous
 62
     7
370
     0
100
AcDbLine
 10
8.3867620264
 20
7.5458341092
 30
0.0
 11
8.3867620264
 21
8.0145348966
 31
0.0
  0
LINE
  5
1A7
330
19A
100
AcDbEntity
  8
0
  6
Continuous
 62
     7
370
     0
100
AcDbLine
 10
8.4867620264
 20
7.8895348966
 30
0.0
 11
8.9041920018
 21
7.8895348966
 31
0.0
  0
LINE
  5
1A8
330
19A
100
AcDbEntity
  8
0
  6
Continuous
 62
     7
370
     0
100
AcDbLine
 10
8.3867620264
 20
7.8895348966
 30
0.0
 11
8.1987620264
 21
7.8895348966
 31
0.0
  0
MTEXT
  5
1A9
330
19A
100
AcDbEntity
  8
0
  6
Continuous
 62
     7
370
     0
100
AcDbMText
 10
8.9327648588
 20
7.9547482301
 30
0.0
 40
0.125
 41
0.0
 71
     1
 72
     1
  1
.100
  7
SLDTEXTSTYLE0
 73
     1
 44
1.0
  0
MTEXT
  5
1AA
330
19A
100
AcDbEntity
  8
0
  6
Continuous
 62
     7
370
     0
100
AcDbMText
 10
9.3529037587
 20
7.9547482301
 30
0.0
 40
0.125
 41
0.0
 71
     1
 72
     1
  1
2.54
  7
SLDTEXTSTYLE0
 73
     1
 44
1.0
  0
ENDBLK
  5
19C
330
19A
100
AcDbEntity
  8
0
100
AcDbBlockEnd
  0
ENDSEC
  0
SECTION
  2
ENTITIES
  0
LINE
  5
73
330
1F
100
AcDbEntity
  8
0
  6
Continuous
 62
     7
370
     0
100
AcDbLine
 10
0.6262516046
 20
10.6420731707
 30
0.0
 11
16.3762516046
 21
10.6420731707
 31
0.0
  0
LINE
  5
74
330
1F
100
AcDbEntity
  8
0
  6
Continuous
 62
     7
370
     0
100
AcDbLine
 10
0.6262516046
 20
10.6420731707
 30
0.0
 11
0.6262516046
 21
0.3920731707
 31
0.0
  0
LINE
  5
75
330
1F
100
AcDbEntity
  8
0
  6
Continuous
 62
     7
370
     0
100
AcDbLine
 10
16.3762516046
 20
0.3920731707
 30
0.0
 11
0.6262516046
 21
0.3920731707
 31
0.0
  0
LINE
  5
76
330
1F
100
AcDbEntity
  8
0
  6
Continuous
 62
     7
370
     0
100
AcDbLine
 10
16.3762516046
 20
0.3920731707
 30
0.0
 11
16.3762516046
 21
10.6420731707
 31
0.0
  0
LINE
  5
77
330
1F
100
AcDbEntity
  8
0
  6
Continuous
 62
     7
370
     0
100
AcDbLine
 10
11.8762516046
 20
1.1420731707
 30
0.0
 11
9.7512516046
 21
1.1420731707
 31
0.0
  0
LINE
  5
78
330
1F
100
AcDbEntity
  8
0
  6
Continuous
 62
     7
370
     0
100
AcDbLine
 10
9.7512516046
 20
0.3920731707
 30
0.0
 11
9.7512516046
 21
1.1420731707
 31
0.0
  0
LINE
  5
79
330
1F
100
AcDbEntity
  8
0
  6
Continuous
 62
     7
370
     0
100
AcDbLine
 10
9.7512516046
 20
0.3920731707
 30
0.0
 11
11.8762516046
 21
0.3920731707
 31
0.0
  0
LINE
  5
7A
330
1F
100
AcDbEntity
  8
0
  6
Continuous
 62
     7
370
     0
100
AcDbLine
 10
11.8762516046
 20
1.7670731707
 30
0.0
 11
16.3762516046
 21
1.7670731707
 31
0.0
  0
LINE
  5
7B
330
1F
100
AcDbEntity
  8
0
  6
Continuous
 62
     7
370
     0
100
AcDbLine
 10
11.9115585544
 20
2.4690731707
 30
0.0
 11
11.9115585544
 21
1.8150731707
 31
0.0
  0
LINE
  5
7C
330
1F
100
AcDbEntity
  8
0
  6
Continuous
 62
     7
370
     0
100
AcDbLine
 10
11.9115585544
 20
1.8150731707
 30
0.0
 11
13.2849407409
 21
1.8150731707
 31
0.0
  0
LINE
  5
7D
330
1F
100
AcDbEntity
  8
0
  6
Continuous
 62
     7
370
     0
100
AcDbLine
 10
13.2849407409
 20
1.8150731707
 30
0.0
 11
13.2849407409
 21
2.4690731707
 31
0.0
  0
LINE
  5
7E
330
1F
100
AcDbEntity
  8
0
  6
Continuous
 62
     7
370
     0
100
AcDbLine
 10
13.2849407409
 20
2.4690731707
 30
0.0
 11
11.9115585544
 21
2.4690731707
 31
0.0
  0
LINE
  5
7F
330
1F
100
AcDbEntity
  8
0
  6
Continuous
 62
     7
370
     0
100
AcDbLine
 10
11.9604026497
 20
1.8794357697
 30
0.0
 11
12.3464026497
 21
2.4024357697
 31
0.0
  0
LINE
  5
80
330
1F
100
AcDbEntity
  8
0
  6
Continuous
 62
     7
370
     0
100
AcDbLine
 10
12.3464026497
 20
2.4024357697
 30
0.0
 11
12.7324026497
 21
1.8794357697
 31
0.0
  0
LINE
  5
81
330
1F
100
AcDbEntity
  8
0
  6
Continuous
 62
     7
370
     0
100
AcDbLine
 10
12.0971179755
 20
1.8794357697
 30
0.0
 11
12.3464026497
 21
2.2171971288
 31
0.0
  0
LINE
  5
82
330
1F
100
AcDbEntity
  8
0
  6
Continuous
 62
     7
370
     0
100
AcDbLine
 10
12.3464026497
 20
2.2171971288
 30
0.0
 11
12.595687324
 21
1.8794357697
 31
0.0
  0
LINE
  5
83
330
1F
100
AcDbEntity
  8
0
  6
Continuous
 62
     7
370
     0
100
AcDbLine
 10
11.9604026497
 20
1.8794357697
 30
0.0
 11
12.0971179755
 21
1.8794357697
 31
0.0
  0
LINE
  5
84
330
1F
100
AcDbEntity
  8
0
  6
Continuous
 62
     7
370
     0
100
AcDbLine
 10
12.595687324
 20
1.8794357697
 30
0.0
 11
12.7324026497
 21
1.8794357697
 31
0.0
  0
LINE
  5
85
330
1F
100
AcDbEntity
  8
0
  6
Continuous
 62
     7
370
     0
100
AcDbLine
 10
11.9861545618
 20
1.8924357697
 30
0.0
 11
12.3464026497
 21
2.3805439303
 31
0.0
  0
LINE
  5
86
330
1F
100
AcDbEntity
  8
0
  6
Continuous
 62
     7
370
     0
100
AcDbLine
 10
12.3464026497
 20
2.3805439303
 30
0.0
 11
12.7066507377
 21
1.8924357697
 31
0.0
  0
LINE
  5
87
330
1F
100
AcDbEntity
  8
0
  6
Continuous
 62
     7
370
     0
100
AcDbLine
 10
11.8762516046
 20
0.3920731707
 30
0.0
 11
11.8762516046
 21
1.1420731707
 31
0.0
  0
LINE
  5
88
330
1F
100
AcDbEntity
  8
0
  6
Continuous
 62
     7
370
     0
100
AcDbLine
 10
11.8762516046
 20
2.5170731707
 30
0.0
 11
16.3762516046
 21
2.5170731707
 31
0.0
  0
LINE
  5
89
330
1F
100
AcDbEntity
  8
0
  6
Continuous
 62
     7
370
     0
100
AcDbLine
 10
11.8762516046
 20
2.5170731707
 30
0.0
 11
11.8762516046
 21
0.3920731707
 31
0.0
  0
LINE
  5
8A
330
1F
100
AcDbEntity
  8
0
  6
Continuous
 62
     7
370
     0
100
AcDbLine
 10
12.0023118275
 20
1.8924357697
 30
0.0
 11
12.3464026497
 21
2.3586520909
 31
0.0
  0
LINE
  5
8B
330
1F
100
AcDbEntity
  8
0
  6
Continuous
 62
     7
370
     0
100
AcDbLine
 10
12.3464026497
 20
2.3586520909
 30
0.0
 11
12.6904934719
 21
1.8924357697
 31
0.0
  0
LINE
  5
8C
330
1F
100
AcDbEntity
  8
0
  6
Continuous
 62
     7
370
     0
100
AcDbLine
 10
14.0307293083
 20
10.6420731707
 30
0.0
 11
14.0307293083
 21
10.2892517875
 31
0.0
  0
LINE
  5
8D
330
1F
100
AcDbEntity
  8
0
  6
Continuous
 62
     7
370
     0
100
AcDbLine
 10
11.8762516046
 20
1.1420731707
 30
0.0
 11
16.3762516046
 21
1.1420731707
 31
0.0
  0
LINE
  5
8E
330
1F
100
AcDbEntity
  8
0
  6
Continuous
 62
     7
370
     0
100
AcDbLine
 10
12.0184690933
 20
1.8924357697
 30
0.0
 11
12.3464026497
 21
2.3367602515
 31
0.0
  0
LINE
  5
8F
330
1F
100
AcDbEntity
  8
0
  6
Continuous
 62
     7
370
     0
100
AcDbLine
 10
12.3464026497
 20
2.3367602515
 30
0.0
 11
12.6743362062
 21
1.8924357697
 31
0.0
  0
LINE
  5
90
330
1F
100
AcDbEntity
  8
0
  6
Continuous
 62
     7
370
     0
100
AcDbLine
 10
12.090555356
 20
1.8924357697
 30
0.0
 11
12.3464026497
 21
2.2390889682
 31
0.0
  0
LINE
  5
91
330
1F
100
AcDbEntity
  8
0
  6
Continuous
 62
     7
370
     0
100
AcDbLine
 10
12.3464026497
 20
2.2390889682
 30
0.0
 11
12.6022499435
 21
1.8924357697
 31
0.0
  0
LINE
  5
92
330
1F
100
AcDbEntity
  8
0
  6
Continuous
 62
     7
370
     0
100
AcDbLine
 10
8.7512516046
 20
0.3920731707
 30
0.0
 11
11.8762516046
 21
0.3920731707
 31
0.0
  0
LINE
  5
93
330
1F
100
AcDbEntity
  8
0
  6
Continuous
 62
     7
370
     0
100
AcDbLine
 10
12.0743980902
 20
1.8924357697
 30
0.0
 11
12.3464026497
 21
2.2609808076
 31
0.0
  0
LINE
  5
94
330
1F
100
AcDbEntity
  8
0
  6
Continuous
 62
     7
370
     0
100
AcDbLine
 10
12.3464026497
 20
2.2609808076
 30
0.0
 11
12.6184072093
 21
1.8924357697
 31
0.0
  0
LINE
  5
95
330
1F
100
AcDbEntity
  8
0
  6
Continuous
 62
     7
370
     0
100
AcDbLine
 10
12.0582408244
 20
1.8924357697
 30
0.0
 11
12.3464026497
 21
2.2828726469
 31
0.0
  0
LINE
  5
96
330
1F
100
AcDbEntity
  8
0
  6
Continuous
 62
     7
370
     0
100
AcDbLine
 10
12.3464026497
 20
2.2828726469
 30
0.0
 11
12.634564475
 21
1.8924357697
 31
0.0
  0
LINE
  5
97
330
1F
100
AcDbEntity
  8
0
  6
Continuous
 62
     7
370
     0
100
AcDbLine
 10
12.0420835587
 20
1.8924357697
 30
0.0
 11
12.3464026497
 21
2.3047644863
 31
0.0
  0
LINE
  5
98
330
1F
100
AcDbEntity
  8
0
  6
Continuous
 62
     7
370
     0
100
AcDbLine
 10
12.6507217408
 20
1.8924357697
 30
0.0
 11
12.3464026497
 21
2.3047644863
 31
0.0
  0
LINE
  5
99
330
1F
100
AcDbEntity
  8
0
  6
Continuous
 62
     7
370
     0
100
AcDbLine
 10
14.0307293083
 20
10.2892517875
 30
0.0
 11
16.3762516046
 21
10.2892517875
 31
0.0
  0
LINE
  5
9A
330
1F
100
AcDbEntity
  8
0
  6
Continuous
 62
     7
370
     0
100
AcDbLine
 10
12.0299355894
 20
1.8924357697
 30
0.0
 11
12.3468230248
 21
2.3210148722
 31
0.0
  0
LINE
  5
9B
330
1F
100
AcDbEntity
  8
0
  6
Continuous
 62
     7
370
     0
100
AcDbLine
 10
12.3468230248
 20
2.3210148722
 30
0.0
 11
12.6631357085
 21
1.8924357697
 31
0.0
  0
LINE
  5
9C
330
1F
100
AcDbEntity
  8
0
  6
Continuous
 62
     7
370
     0
100
AcDbLine
 10
12.6256385484
 20
2.0897683474
 30
0.0
 11
12.8564026497
 21
2.4024357697
 31
0.0
  0
LINE
  5
9D
330
1F
100
AcDbEntity
  8
0
  6
Continuous
 62
     7
370
     0
100
AcDbLine
 10
12.6417958141
 20
2.0897683474
 30
0.0
 11
12.8564026497
 21
2.3805439303
 31
0.0
  0
LINE
  5
9E
330
1F
100
AcDbEntity
  8
0
  6
Continuous
 62
     7
370
     0
100
AcDbLine
 10
12.649874447
 20
2.0788224277
 30
0.0
 11
12.8564026497
 21
2.3586520909
 31
0.0
  0
LINE
  5
9F
330
1F
100
AcDbEntity
  8
0
  6
Continuous
 62
     7
370
     0
100
AcDbLine
 10
12.6697603126
 20
2.0518786254
 30
0.0
 11
12.8564026497
 21
2.3047644863
 31
0.0
  0
LINE
  5
A0
330
1F
100
AcDbEntity
  8
0
  6
Continuous
 62
     7
370
     0
100
AcDbLine
 10
12.6778389455
 20
2.0409327057
 30
0.0
 11
12.8564026497
 21
2.2828726469
 31
0.0
  0
LINE
  5
A1
330
1F
100
AcDbEntity
  8
0
  6
Continuous
 62
     7
370
     0
100
AcDbLine
 10
12.6579530799
 20
2.067876508
 30
0.0
 11
12.8564026497
 21
2.3367602515
 31
0.0
  0
LINE
  5
A2
330
1F
100
AcDbEntity
  8
0
  6
Continuous
 62
     7
370
     0
100
AcDbLine
 10
12.6637986557
 20
2.0599562071
 30
0.0
 11
12.8568230248
 21
2.3210148722
 31
0.0
  0
LINE
  5
A3
330
1F
100
AcDbEntity
  8
0
  6
Continuous
 62
     7
370
     0
100
AcDbLine
 10
12.5843980902
 20
1.8924357697
 30
0.0
 11
12.585245384
 21
1.8935837869
 31
0.0
  0
LINE
  5
A4
330
1F
100
AcDbEntity
  8
0
  6
Continuous
 62
     7
370
     0
100
AcDbLine
 10
12.600555356
 20
1.8924357697
 30
0.0
 11
12.6014026497
 21
1.8935837869
 31
0.0
  0
LINE
  5
A5
330
1F
100
AcDbEntity
  8
0
  6
Continuous
 62
     7
370
     0
100
AcDbLine
 10
12.6939962112
 20
1.997149027
 30
0.0
 11
12.8564026497
 21
2.2171971288
 31
0.0
  0
LINE
  5
A6
330
1F
100
AcDbEntity
  8
0
  6
Continuous
 62
     7
370
     0
100
AcDbLine
 10
12.8564026497
 20
2.2171971288
 30
0.0
 11
13.105687324
 21
1.8794357697
 31
0.0
  0
LINE
  5
A7
330
1F
100
AcDbEntity
  8
0
  6
Continuous
 62
     7
370
     0
100
AcDbLine
 10
12.8564026497
 20
2.2390889682
 30
0.0
 11
13.1122499435
 21
1.8924357697
 31
0.0
  0
LINE
  5
A8
330
1F
100
AcDbEntity
  8
0
  6
Continuous
 62
     7
370
     0
100
AcDbLine
 10
12.8564026497
 20
2.2609808076
 30
0.0
 11
13.1284072093
 21
1.8924357697
 31
0.0
  0
LINE
  5
A9
330
1F
100
AcDbEntity
  8
0
  6
Continuous
 62
     7
370
     0
100
AcDbLine
 10
12.8564026497
 20
2.2828726469
 30
0.0
 11
13.144564475
 21
1.8924357697
 31
0.0
  0
LINE
  5
AA
330
1F
100
AcDbEntity
  8
0
  6
Continuous
 62
     7
370
     0
100
AcDbLine
 10
13.1607217408
 20
1.8924357697
 30
0.0
 11
12.8564026497
 21
2.3047644863
 31
0.0
  0
LINE
  5
AB
330
1F
100
AcDbEntity
  8
0
  6
Continuous
 62
     7
370
     0
100
AcDbLine
 10
12.8568230248
 20
2.3210148722
 30
0.0
 11
13.1731357085
 21
1.8924357697
 31
0.0
  0
LINE
  5
AC
330
1F
100
AcDbEntity
  8
0
  6
Continuous
 62
     7
370
     0
100
AcDbLine
 10
12.8564026497
 20
2.3367602515
 30
0.0
 11
13.1843362062
 21
1.8924357697
 31
0.0
  0
LINE
  5
AD
330
1F
100
AcDbEntity
  8
0
  6
Continuous
 62
     7
370
     0
100
AcDbLine
 10
12.8564026497
 20
2.3586520909
 30
0.0
 11
13.2004934719
 21
1.8924357697
 31
0.0
  0
LINE
  5
AE
330
1F
100
AcDbEntity
  8
0
  6
Continuous
 62
     7
370
     0
100
AcDbLine
 10
12.8564026497
 20
2.3805439303
 30
0.0
 11
13.2166507377
 21
1.8924357697
 31
0.0
  0
LINE
  5
AF
330
1F
100
AcDbEntity
  8
0
  6
Continuous
 62
     7
370
     0
100
AcDbLine
 10
12.8564026497
 20
2.4024357697
 30
0.0
 11
13.2424026497
 21
1.8794357697
 31
0.0
  0
LINE
  5
B0
330
1F
100
AcDbEntity
  8
0
  6
Continuous
 62
     7
370
     0
100
AcDbLine
 10
13.105687324
 20
1.8794357697
 30
0.0
 11
13.2424026497
 21
1.8794357697
 31
0.0
  0
LINE
  5
B1
330
1F
100
AcDbEntity
  8
0
  6
Continuous
 62
     7
370
     0
100
AcDbLine
 10
12.6256385484
 20
2.0897683474
 30
0.0
 11
12.6939962112
 21
1.997149027
 31
0.0
  0
LINE
  5
B2
330
1F
100
AcDbEntity
  8
0
  6
Continuous
 62
     7
370
     0
100
AcDbLine
 10
12.6859175784
 20
2.029986786
 30
0.0
 11
12.8564026497
 21
2.2609808076
 31
0.0
  0
LINE
  5
B3
330
1F
100
AcDbEntity
  8
0
  6
Continuous
 62
     7
370
     0
100
AcDbLine
 10
12.6939962112
 20
2.0190408663
 30
0.0
 11
12.8564026497
 21
2.2390889682
 31
0.0
  0
CIRCLE
  5
B4
330
1F
100
AcDbEntity
  8
0
  6
Continuous
 62
     7
370
     0
100
AcDbCircle
 10
12.3464026497
 20
2.0365156974
 30
0.0
 40
0.085000000000001
  0
CIRCLE
  5
B5
330
1F
100
AcDbEntity
  8
0
  6
Continuous
 62
     7
370
     0
100
AcDbCircle
 10
12.3464026497
 20
2.0365156974
 30
0.0
 40
0.0668829722549127
  0
CIRCLE
  5
B6
330
1F
100
AcDbEntity
  8
0
  6
Continuous
 62
     7
370
     0
100
AcDbCircle
 10
12.3464026497
 20
2.0365156974
 30
0.0
 40
0.0497041167226106
  0
CIRCLE
  5
B7
330
1F
100
AcDbEntity
  8
0
  6
Continuous
 62
     7
370
     0
100
AcDbCircle
 10
12.3464026497
 20
2.0365156974
 30
0.0
 40
0.0316033058151713
  0
CIRCLE
  5
B8
330
1F
100
AcDbEntity
  8
0
  6
Continuous
 62
     7
370
     0
100
AcDbCircle
 10
12.3464026497
 20
2.0365156974
 30
0.0
 40
0.0153814812308201
  0
CIRCLE
  5
B9
330
1F
100
AcDbEntity
  8
0
  6
Continuous
 62
     7
370
     0
100
AcDbCircle
 10
13.3953498971
 20
2.3210148722
 30
0.0
 40
0.0764999999999987
  0
INSERT
  5
C0
330
1F
100
AcDbEntity
  8
0
  6
Continuous
 62
     7
370
     0
100
AcDbBlockReference
  2
SW_NOTE_0
 10
4.4634416379
 20
1.9388593542
 30
0.0
  0
MTEXT
  5
C2
330
1F
100
AcDbEntity
  8
0
  6
Continuous
 62
     7
370
     0
100
AcDbMText
 10
13.3557876923
 20
2.3732299511
 30
0.0
 40
0.1098
 41
0.0
 71
     1
 72
     1
  1
R
  7
SLDTEXTSTYLE1
 73
     1
 44
1.0
  0
MTEXT
  5
C3
330
1F
100
AcDbEntity
  8
0
  6
Continuous
 62
     7
370
     0
100
AcDbMText
 10
13.5667959126
 20
2.4222761
 30
0.0
 40
0.156
 41
0.0
 71
     1
 72
     1
  1
ALLIED MOULDED PRODUCTS
  7
SLDTEXTSTYLE1
 73
     1
 44
1.0
  0
MTEXT
  5
C4
330
1F
100
AcDbEntity
  8
0
  6
Continuous
 62
     7
370
     0
100
AcDbMText
 10
14.3717658824
 20
2.2340561697
 30
0.0
 40
0.1418
 41
0.0
 71
     1
 72
     1
  1
BRYAN, OHIO
  7
SLDTEXTSTYLE1
 73
     1
 44
1.0
  0
MTEXT
  5
C6
330
1F
100
AcDbEntity
  8
0
  6
Continuous
 62
     7
370
     0
100
AcDbMText
 10
13.6593337363
 20
1.9723580255
 30
0.0
 40
0.1145833333
 41
0.0
 71
     1
 72
     1
  1
The Original Fiber Glass Outlet Box
  7
SLDTEXTSTYLE2
 73
     1
 44
1.0
  0
MTEXT
  5
C7
330
1F
100
AcDbEntity
  8
0
  6
Continuous
 62
     7
370
     0
100
AcDbMText
 10
11.9026195597
 20
1.7391536032
 30
0.0
 40
0.0833333333
 41
0.0
 71
     1
 72
     1
  1
PRODUCT SERIES
  7
SLDTEXTSTYLE1
 73
     1
 44
1.0
  0
MTEXT
  5
C8
330
1F
100
AcDbEntity
  8
0
  6
Continuous
 62
     7
370
     0
100
AcDbMText
 10
11.9022624172
 20
1.142786349
 30
0.0
 40
0.0833333333
 41
0.0
 71
     1
 72
     1
  1
Part No.
  7
SLDTEXTSTYLE1
 73
     1
 44
1.0
  0
MTEXT
  5
C9
330
1F
100
AcDbEntity
  8
0
  6
Continuous
 62
     7
370
     0
100
AcDbMText
 10
10.1444325596
 20
1.0608844247
 30
0.0
 40
0.125
 41
0.0
 71
     1
 72
     1
  1
CONFIDENTIAL
  7
SLDTEXTSTYLE2
 73
     1
 44
1.0
  0
INSERT
  5
D2
330
1F
100
AcDbEntity
  8
0
  6
Continuous
 62
     7
370
     0
100
AcDbBlockReference
  2
SW_NOTE_1
 10
9.7941464524
 20
0.7902160386
 30
0.0
  0
MTEXT
  5
D3
330
1F
100
AcDbEntity
  8
0
  6
Continuous
 62
     7
370
     0
100
AcDbMText
 10
15.1606591697
 20
10.5131302133
 30
0.0
 40
0.125
 41
0.0
 71
     1
 72
     1
  1
6/24/2016
  7
SLDTEXTSTYLE1
 73
     1
 44
1.0
  0
MTEXT
  5
D4
330
1F
100
AcDbEntity
  8
0
  6
Continuous
 62
     7
370
     0
100
AcDbMText
 10
12.0586255498
 20
0.9386490467
 30
0.0
 40
0.375
 41
0.0
 71
     1
 72
     1
  1
PA74
  7
SLDTEXTSTYLE1
 73
     1
 44
1.0
  0
MTEXT
  5
D5
330
1F
100
AcDbEntity
  8
0
  6
Continuous
 62
     7
370
     0
100
AcDbMText
 10
12.0140814138
 20
1.5462316656
 30
0.0
 40
0.25
 41
0.0
 71
     1
 72
     1
  1
Access-Indus
  7
SLDTEXTSTYLE1
 73
     1
 44
1.0
  0
MTEXT
  5
D6
330
1F
100
AcDbEntity
  8
0
  6
Continuous
 62
     7
370
     0
100
AcDbMText
 10
14.1040673614
 20
10.5131302133
 30
0.0
 40
0.125
 41
0.0
 71
     1
 72
     1
  1
ISSUE DATE:
  7
SLDTEXTSTYLE1
 73
     1
 44
1.0
  0
CIRCLE
  5
D7
330
1F
100
AcDbEntity
  8
0
  6
Continuous
 62
     7
370
    15
100
AcDbCircle
 10
5.4449991995
 20
7.2768341092
 30
0.0
 40
0.1089999999999991
  0
CIRCLE
  5
D8
330
1F
100
AcDbEntity
  8
0
  6
Continuous
 62
     7
370
    15
100
AcDbCircle
 10
2.8199991995
 20
7.2768341092
 30
0.0
 40
0.1090000000000004
  0
CIRCLE
  5
D9
330
1F
100
AcDbEntity
  8
0
  6
Continuous
 62
     7
370
    15
100
AcDbCircle
 10
5.4449991995
 20
3.7148341092
 30
0.0
 40
0.109
  0
CIRCLE
  5
DA
330
1F
100
AcDbEntity
  8
0
  6
Continuous
 62
     7
370
    15
100
AcDbCircle
 10
2.8199991995
 20
3.7148341092
 30
0.0
 40
0.1089999999999995
  0
LINE
  5
DB
330
1F
100
AcDbEntity
  8
0
  6
Continuous
 62
     7
370
    15
100
AcDbLine
 10
2.569999223
 20
3.4958341334
 30
0.0
 11
5.6949991761
 21
3.4958341334
 31
0.0
  0
LINE
  5
DC
330
1F
100
AcDbEntity
  8
0
  6
Continuous
 62
     7
370
    15
100
AcDbLine
 10
5.6949991761
 20
3.4958341334
 30
0.0
 11
5.6949991761
 21
7.4958340851
 31
0.0
  0
LINE
  5
DD
330
1F
100
AcDbEntity
  8
0
  6
Continuous
 62
     7
370
    15
100
AcDbLine
 10
5.6949991761
 20
7.4958340851
 30
0.0
 11
2.569999223
 21
7.4958340851
 31
0.0
  0
LINE
  5
DE
330
1F
100
AcDbEntity
  8
0
  6
Continuous
 62
     7
370
    15
100
AcDbLine
 10
2.569999223
 20
7.4958340851
 30
0.0
 11
2.569999223
 21
3.4958341334
 31
0.0
  0
DIMENSION
  5
DF
330
1F
100
AcDbEntity
  8
0
  6
Continuous
 62
     7
370
     0
100
AcDbDimension
  2
_D
 10
2.5699991995
 20
8.3619758415
 30
0.0
 11
4.2819380583
 21
8.3619758415
 31
0.0
 70
   160
  1
<>
 71
     2
 42
-1.0
  3
SLDDIMSTYLE0
100
AcDbAlignedDimension
 13
5.6949991995
 23
7.4958341092
 33
0.0
 14
2.5699991995
 24
7.4958341092
 34
0.0
100
AcDbRotatedDimension
  0
DIMENSION
  5
F2
330
1F
100
AcDbEntity
  8
0
  6
Continuous
 62
     7
370
     0
100
AcDbDimension
  2
_D_1
 10
7.5060228216
 20
7.4958341092
 30
0.0
 11
7.5060228216
 21
5.1096811286
 31
0.0
 70
   160
  1
<>
 71
     2
 42
-1.0
  3
SLDDIMSTYLE1
100
AcDbAlignedDimension
 13
5.6949991995
 23
3.4958341092
 33
0.0
 14
5.6949991995
 24
7.4958341092
 34
0.0
 50
90.0
100
AcDbRotatedDimension
  0
DIMENSION
  5
105
330
1F
100
AcDbEntity
  8
0
  6
Continuous
 62
     7
370
     0
100
AcDbDimension
  2
_D_2
 10
2.7788787586
 20
3.8157801807
 30
0.0
 11
3.7976652818
 21
3.0408132863
 31
0.0
 70
   163
  1
<> 4x
 71
     1
 42
-1.0
  3
SLDDIMSTYLE2
100
AcDbDiametricDimension
 15
2.8611196404
 25
3.6138880378
 35
0.0
 40
0.0
  0
DIMENSION
  5
117
330
1F
100
AcDbEntity
  8
0
  6
Continuous
 62
     7
370
     0
100
AcDbDimension
  2
_D_3
 10
1.7038574672
 20
7.4958341092
 30
0.0
 11
1.7038574672
 21
7.1423297845
 31
0.0
 70
   160
  1
<>
 71
     2
 42
-1.0
  3
SLDDIMSTYLE0
100
AcDbAlignedDimension
 13
2.6109991995
 23
7.2768341092
 33
0.0
 14
2.5699991995
 24
7.4958341092
 34
0.0
 50
90.0
100
AcDbRotatedDimension
  0
DIMENSION
  5
12A
330
1F
100
AcDbEntity
  8
0
  6
Continuous
 62
     7
370
     0
100
AcDbDimension
  2
_D_4
 10
2.8199991995
 20
7.8895348966
 30
0.0
 11
1.7038574672
 21
7.8895348966
 31
0.0
 70
   160
  1
<>
 71
     2
 42
-1.0
  3
SLDDIMSTYLE0
100
AcDbAlignedDimension
 13
2.5699991995
 23
7.4958341092
 33
0.0
 14
2.8199991995
 24
7.4858341092
 34
0.0
100
AcDbRotatedDimension
  0
DIMENSION
  5
13C
330
1F
100
AcDbEntity
  8
0
  6
Continuous
 62
     7
370
     0
100
AcDbDimension
  2
_D_5
 10
5.4449991995
 20
8.0342519613
 30
0.0
 11
4.2153568407
 21
8.0342519613
 31
0.0
 70
   160
  1
<>
 71
     2
 42
-1.0
  3
SLDDIMSTYLE0
100
AcDbAlignedDimension
 13
2.8199991995
 23
7.4858341092
 33
0.0
 14
5.4449991995
 24
7.4858341092
 34
0.0
100
AcDbRotatedDimension
  0
DIMENSION
  5
14E
330
1F
100
AcDbEntity
  8
0
  6
Continuous
 62
     7
370
     0
100
AcDbDimension
  2
_D_6
 10
6.5611409318
 20
3.7148341092
 30
0.0
 11
6.5611409318
 21
5.6428221672
 31
0.0
 70
   160
  1
<>
 71
     2
 42
-1.0
  3
SLDDIMSTYLE0
100
AcDbAlignedDimension
 13
5.6539991995
 23
7.2768341092
 33
0.0
 14
5.6539991995
 24
3.7148341092
 34
0.0
 50
90.0
100
AcDbRotatedDimension
  0
INSERT
  5
16B
330
1F
100
AcDbEntity
  8
0
  6
Continuous
 62
     7
370
     0
100
AcDbBlockReference
  2
SW_CENTERMARKSYMBOL_0
 10
5.4449991995
 20
7.2768341092
 30
0.0
  0
INSERT
  5
177
330
1F
100
AcDbEntity
  8
0
  6
Continuous
 62
     7
370
     0
100
AcDbBlockReference
  2
SW_CENTERMARKSYMBOL_1
 10
2.8199991995
 20
7.2768341092
 30
0.0
  0
INSERT
  5
183
330
1F
100
AcDbEntity
  8
0
  6
Continuous
 62
     7
370
     0
100
AcDbBlockReference
  2
SW_CENTERMARKSYMBOL_2
 10
2.8199991995
 20
3.7148341092
 30
0.0
  0
INSERT
  5
18F
330
1F
100
AcDbEntity
  8
0
  6
Continuous
 62
     7
370
     0
100
AcDbBlockReference
  2
SW_CENTERMARKSYMBOL_3
 10
5.4449991995
 20
3.7148341092
 30
0.0
  0
LINE
  5
190
330
1F
100
AcDbEntity
  8
0
  6
Continuous
 62
     7
370
    15
100
AcDbLine
 10
8.486762027
 20
7.4958340851
 30
0.0
 11
8.3867620264
 21
7.4958340851
 31
0.0
  0
LINE
  5
191
330
1F
100
AcDbEntity
  8
0
  6
Continuous
 62
     7
370
    15
100
AcDbLine
 10
8.486762027
 20
3.4958341334
 30
0.0
 11
8.486762027
 21
7.4958340851
 31
0.0
  0
LINE
  5
192
330
1F
100
AcDbEntity
  8
0
  6
Continuous
 62
     7
370
    15
100
AcDbLine
 10
8.486762027
 20
3.4958341334
 30
0.0
 11
8.3867620264
 21
3.4958341334
 31
0.0
  0
LINE
  5
193
330
1F
100
AcDbEntity
  8
0
  6
Continuous
 62
     7
370
    15
100
AcDbLine
 10
8.3867620264
 20
3.4958341334
 30
0.0
 11
8.3867620264
 21
7.4958340851
 31
0.0
  0
LINE
  5
194
330
1F
100
AcDbEntity
  8
0
  6
HIDDEN
 62
     7
370
     0
100
AcDbLine
 10
8.3867620264
 20
3.605834036
 30
0.0
 11
8.486762027
 21
3.605834036
 31
0.0
  0
LINE
  5
195
330
1F
100
AcDbEntity
  8
0
  6
HIDDEN
 62
     7
370
     0
100
AcDbLine
 10
8.486762027
 20
3.8238340643
 30
0.0
 11
8.3867620264
 21
3.8238340643
 31
0.0
  0
LINE
  5
196
330
1F
100
AcDbEntity
  8
0
  6
HIDDEN
 62
     7
370
     0
100
AcDbLine
 10
8.3867620264
 20
7.1678341541
 30
0.0
 11
8.486762027
 21
7.1678341541
 31
0.0
  0
LINE
  5
197
330
1F
100
AcDbEntity
  8
0
  6
HIDDEN
 62
     7
370
     0
100
AcDbLine
 10
8.486762027
 20
7.3858341825
 30
0.0
 11
8.3867620264
 21
7.3858341825
 31
0.0
  0
DIMENSION
  5
198
330
1F
100
AcDbEntity
  8
0
  6
Continuous
 62
     7
370
     0
100
AcDbDimension
  2
_D_7
 10
8.3867620264
 20
7.8895348966
 30
0.0
 11
9.3529037587
 21
7.8895348966
 31
0.0
 70
   160
  1
<>
 71
     2
 42
-1.0
  3
SLDDIMSTYLE3
100
AcDbAlignedDimension
 13
8.4867620264
 23
7.4958341092
 33
0.0
 14
8.3867620264
 24
7.4958341092
 34
0.0
100
AcDbRotatedDimension
  0
LINE
  5
1AB
330
1F
100
AcDbEntity
  8
0
  6
Continuous
 62
     7
370
    15
100
AcDbLine
 10
14.6961837069
 20
6.7573985079
 30
0.0
 11
12.4864750488
 21
8.0330361635
 31
0.0
  0
LINE
  5
1AC
330
1F
100
AcDbEntity
  8
0
  6
Continuous
 62
     7
370
    15
100
AcDbLine
 10
14.6961837069
 20
3.4912352998
 30
0.0
 11
14.6961837069
 21
6.7573985079
 31
0.0
  0
LINE
  5
1AD
330
1F
100
AcDbEntity
  8
0
  6
Continuous
 62
     7
370
    15
100
AcDbLine
 10
12.4864750488
 20
4.7668729554
 30
0.0
 11
14.6961837069
 21
3.4912352998
 31
0.0
  0
LINE
  5
1AE
330
1F
100
AcDbEntity
  8
0
  6
Continuous
 62
     7
370
    15
100
AcDbLine
 10
12.4864750488
 20
8.0330361635
 30
0.0
 11
12.4864750488
 21
4.7668729554
 31
0.0
  0
LWPOLYLINE
  5
1AF
330
1F
100
AcDbEntity
  8
0
  6
Continuous
 62
     7
370
    15
100
AcDbPolyline
 90
      118
 70
   128
 43
0.0
 10
14.596481624
 20
6.6361328655
 10
14.5963705529
 20
6.640974369
 10
14.5960375472
 20
6.6459302206
 10
14.5954835401
 20
6.6509861091
 10
14.5947102948
 20
6.6561274842
 10
14.5937197816
 20
6.6613394363
 10
14.5925151119
 20
6.6666071156
 10
14.5910996042
 20
6.6719150736
 10
14.5894774068
 20
6.6772482213
 10
14.5876531867
 20
6.6825911702
 10
14.5856322328
 20
6.6879284121
 10
14.5834202492
 20
6.6932445587
 10
14.5810237695
 20
6.6985243414
 10
14.5784496383
 20
6.7037525517
 10
14.5757052188
 20
6.7089140409
 10
14.5727984967
 20
6.7139940195
 10
14.5697378722
 20
6.7189776983
 10
14.5665320568
 20
6.7238509467
 10
14.5631903842
 20
6.7285995143
 10
14.5597224992
 20
6.7332096898
 10
14.5561383577
 20
6.7376683007
 10
14.5524483306
 20
6.7419625339
 10
14.5486630998
 20
6.746079756
 10
14.544793347
 20
6.7500084112
 10
14.540850584
 20
6.7537369441
 10
14.5368459075
 20
6.7572546373
 10
14.5327909326
 20
6.7605515521
 10
14.5286973785
 20
6.7636179292
 10
14.524576964
 20
6.7664450873
 10
14.5204417193
 20
6.7690247642
 10
14.5163035708
 20
6.7713494762
 10
14.5121742375
 20
6.7734126976
 10
14.5080658531
 20
6.7752083818
 10
14.5039901367
 20
6.7767313203
 10
14.4999588073
 20
6.7779772629
 10
14.4959836874
 20
6.7789423783
 10
14.4920759777
 20
6.7796241529
 10
14.4882470858
 20
6.7800205516
 10
14.4845081086
 20
6.7801301984
 10
14.480869728
 20
6.7799530345
 10
14.4773424184
 20
6.7794894798
 10
14.473936447
 20
6.7787409126
 10
14.4706615622
 20
6.7777093697
 10
14.4675272014
 20
6.7763980256
 10
14.4645423873
 20
6.7748105337
 10
14.4617158314
 20
6.772951326
 10
14.4590555708
 20
6.7708260616
 10
14.4565693838
 20
6.7684407891
 10
14.4542643225
 20
6.7658022157
 10
14.4521470759
 20
6.7629180963
 10
14.450223763
 20
6.7597967545
 10
14.448499932
 20
6.7564470831
 10
14.4469805609
 20
6.7528787828
 10
14.4456700055
 20
6.7491022729
 10
14.4445720511
 20
6.7451281824
 10
14.4436898607
 20
6.7409682179
 10
14.4430259752
 20
6.7366342058
 10
14.4425823133
 20
6.7321388105
 10
14.4423601712
 20
6.7274948165
 10
14.4423601712
 20
6.7227157563
 10
14.4425823133
 20
6.7178152824
 10
14.4430259752
 20
6.7128076459
 10
14.4436898607
 20
6.7077071279
 10
14.4445720511
 20
6.7025286081
 10
14.4456700055
 20
6.6972869662
 10
14.4469805609
 20
6.6919972015
 10
14.448499932
 20
6.6866746727
 10
14.450223763
 20
6.6813347083
 10
14.4521470759
 20
6.6759927568
 10
14.4542643225
 20
6.6706641165
 10
14.4565693838
 20
6.6653642956
 10
14.4590555708
 20
6.660108413
 10
14.4617158314
 20
6.6549116772
 10
14.4645423873
 20
6.6497891171
 10
14.4675272014
 20
6.6447554322
 10
14.4706615622
 20
6.6398251125
 10
14.473936447
 20
6.6350125879
 10
14.4773424184
 20
6.63033145
 10
14.480869728
 20
6.6257953504
 10
14.4845081086
 20
6.6214174015
 10
14.4882470858
 20
6.6172102369
 10
14.4920759777
 20
6.6131857715
 10
14.4959836874
 20
6.6093558004
 10
14.4999588073
 20
6.6057313402
 10
14.5039901367
 20
6.6023228088
 10
14.5080658531
 20
6.5991400253
 10
14.5121742375
 20
6.5961922698
 10
14.5163035708
 20
6.5934878645
 10
14.5204417193
 20
6.5910348917
 10
14.524576964
 20
6.5888401167
 10
14.5286973785
 20
6.5869098258
 10
14.5327909326
 20
6.5852498859
 10
14.5368459075
 20
6.5838650264
 10
14.540850584
 20
6.5827590184
 10
14.544793347
 20
6.581935334
 10
14.5486630998
 20
6.5813960679
 10
14.5524483306
 20
6.5811429554
 10
14.5561383577
 20
6.581176774
 10
14.5597224992
 20
6.5814972233
 10
14.5631903842
 20
6.5821034639
 10
14.5665320568
 20
6.5829938185
 10
14.5697378722
 20
6.5841657112
 10
14.5727984967
 20
6.5856156682
 10
14.5757052188
 20
6.5873396169
 10
14.5784496383
 20
6.5893325866
 10
14.5810237695
 20
6.5915886485
 10
14.5834202492
 20
6.5941015146
 10
14.5856322328
 20
6.5968638791
 10
14.5876531867
 20
6.5998676576
 10
14.5894774068
 20
6.6031044067
 10
14.5910996042
 20
6.6065646052
 10
14.5925151119
 20
6.6102382528
 10
14.5937197816
 20
6.61411505
 10
14.5947102948
 20
6.6181833799
 10
14.5954835401
 20
6.622431985
 10
14.5960375472
 20
6.6268482306
 10
14.5963705529
 20
6.6314196019
 10
14.596481624
 20
6.6361328655
  0
LWPOLYLINE
  5
1B0
330
1F
100
AcDbEntity
  8
0
  6
Continuous
 62
     7
370
    15
100
AcDbPolyline
 90
      118
 70
   128
 43
0.0
 10
12.5861771317
 20
7.7966569464
 10
12.5862882028
 20
7.7918154429
 10
12.5866212085
 20
7.7868595914
 10
12.5871752156
 20
7.7818037028
 10
12.5879484609
 20
7.7766623277
 10
12.5889389741
 20
7.7714503757
 10
12.5901436438
 20
7.7661826964
 10
12.5915591515
 20
7.7608747383
 10
12.5931813489
 20
7.7555415906
 10
12.595005569
 20
7.7501986418
 10
12.5970265229
 20
7.7448615196
 10
12.5992385064
 20
7.7395452532
 10
12.6016349862
 20
7.7342654705
 10
12.6042091174
 20
7.72903738
 10
12.6069535368
 20
7.7238757711
 10
12.609860259
 20
7.7187957924
 10
12.6129208835
 20
7.7138121136
 10
12.6161266989
 20
7.7089388652
 10
12.6194683715
 20
7.7041902976
 10
12.6229362565
 20
7.6995801221
 10
12.6265203979
 20
7.6951215112
 10
12.6302104251
 20
7.690827278
 10
12.6339956559
 20
7.686710056
 10
12.6378654086
 20
7.6827814007
 10
12.6418081716
 20
7.6790528678
 10
12.6458128482
 20
7.6755351746
 10
12.6498678231
 20
7.6722382599
 10
12.6539613772
 20
7.6691718828
 10
12.6580817917
 20
7.6663448444
 10
12.6622170363
 20
7.6637651675
 10
12.6663551848
 20
7.6614403357
 10
12.6704845182
 20
7.6593771143
 10
12.6745929025
 20
7.6575814301
 10
12.6786686189
 20
7.6560584916
 10
12.6826999484
 20
7.6548125491
 10
12.6866750682
 20
7.6538474336
 10
12.690582778
 20
7.6531656591
 10
12.6944116699
 20
7.6527693801
 10
12.6981506471
 20
7.6526596135
 10
12.7017890277
 20
7.6528367775
 10
12.7053163373
 20
7.6533003322
 10
12.7087223087
 20
7.6540490191
 10
12.7119971935
 20
7.6550804422
 10
12.7151315542
 20
7.6563919061
 10
12.7181163683
 20
7.6579793979
 10
12.7209429243
 20
7.659838486
 10
12.7236031849
 20
7.6619637503
 10
12.7260893719
 20
7.6643491425
 10
12.7283944332
 20
7.6669875962
 10
12.7305116797
 20
7.6698717157
 10
12.7324349927
 20
7.6729930574
 10
12.7341588237
 20
7.6763427289
 10
12.7356781947
 20
7.6799110292
 10
12.7369887502
 20
7.6836876588
 10
12.7380867046
 20
7.6876616295
 10
12.738968895
 20
7.691821594
 10
12.7396327804
 20
7.6961556061
 10
12.7400764424
 20
7.7006510014
 10
12.7402985845
 20
7.7052949955
 10
12.7402985845
 20
7.7100740557
 10
12.7400764424
 20
7.7149745295
 10
12.7396327804
 20
7.719982166
 10
12.738968895
 20
7.725082684
 10
12.7380867046
 20
7.7302612038
 10
12.7369887502
 20
7.7355029655
 10
12.7356781947
 20
7.7407926104
 10
12.7341588237
 20
7.7461151392
 10
12.7324349927
 20
7.7514551036
 10
12.7305116797
 20
7.7567970552
 10
12.7283944332
 20
7.7621256954
 10
12.7260893719
 20
7.767425636
 10
12.7236031849
 20
7.7726813989
 10
12.7209429243
 20
7.7778781347
 10
12.7181163683
 20
7.7830008146
 10
12.7151315542
 20
7.7880344995
 10
12.7119971935
 20
7.7929646994
 10
12.7087223087
 20
7.7977773438
 10
12.7053163373
 20
7.8024583619
 10
12.7017890277
 20
7.8069944616
 10
12.6981506471
 20
7.8113724104
 10
12.6944116699
 20
7.8155796948
 10
12.690582778
 20
7.8196040404
 10
12.6866750682
 20
7.8234340116
 10
12.6826999484
 20
7.8270584718
 10
12.6786686189
 20
7.8304670031
 10
12.6745929025
 20
7.8336497866
 10
12.6704845182
 20
7.8365975421
 10
12.6663551848
 20
7.8393019475
 10
12.6622170363
 20
7.84175504
 10
12.6580817917
 20
7.8439498149
 10
12.6539613772
 20
7.8458799861
 10
12.6498678231
 20
7.847539926
 10
12.6458128482
 20
7.8489247856
 10
12.6418081716
 20
7.8500307935
 10
12.6378654086
 20
7.8508544779
 10
12.6339956559
 20
7.851393744
 10
12.6302104251
 20
7.8516468565
 10
12.6265203979
 20
7.8516130379
 10
12.6229362565
 20
7.8512925887
 10
12.6194683715
 20
7.850686348
 10
12.6161266989
 20
7.8497959934
 10
12.6129208835
 20
7.8486241008
 10
12.609860259
 20
7.8471741438
 10
12.6069535368
 20
7.845450195
 10
12.6042091174
 20
7.8434573451
 10
12.6016349862
 20
7.8412011635
 10
12.5992385064
 20
7.8386882973
 10
12.5970265229
 20
7.8359260526
 10
12.595005569
 20
7.8329221543
 10
12.5931813489
 20
7.8296854052
 10
12.5915591515
 20
7.8262252067
 10
12.5901436438
 20
7.8225515591
 10
12.5889389741
 20
7.8186747619
 10
12.5879484609
 20
7.814606432
 10
12.5871752156
 20
7.8103578269
 10
12.5866212085
 20
7.8059415813
 10
12.5862882028
 20
7.80137021
 10
12.5861771317
 20
7.7966569464
  0
LWPOLYLINE
  5
1B1
330
1F
100
AcDbEntity
  8
0
  6
Continuous
 62
     7
370
    15
100
AcDbPolyline
 90
      118
 70
   128
 43
0.0
 10
14.4423323775
 20
3.8166029827
 10
14.4424435004
 20
3.8117614492
 10
14.4427765061
 20
3.8068055977
 10
14.4433304613
 20
3.8017497391
 10
14.4441038104
 20
3.7966083041
 10
14.4450942198
 20
3.7913964119
 10
14.4462989414
 20
3.7861287027
 10
14.4477143973
 20
3.7808207746
 10
14.4493365947
 20
3.7754876269
 10
14.4511608148
 20
3.770144678
 10
14.4531818205
 20
3.7648074062
 10
14.4553937522
 20
3.7594912895
 10
14.4577902838
 20
3.7542114768
 10
14.4603644151
 20
3.7489832665
 10
14.4631088345
 20
3.7438217774
 10
14.4660155566
 20
3.7387417987
 10
14.4690761811
 20
3.7337581199
 10
14.4722819965
 20
3.7288848715
 10
14.4756236691
 20
3.7241363039
 10
14.4790915541
 20
3.7195261284
 10
14.4826756956
 20
3.7150675175
 10
14.4863657227
 20
3.7107732843
 10
14.4901510573
 20
3.7066560024
 10
14.4940207063
 20
3.702727407
 10
14.4979634693
 20
3.6989988742
 10
14.5019681458
 20
3.6954811809
 10
14.5060231207
 20
3.6921842662
 10
14.5101166748
 20
3.6891178891
 10
14.5142370893
 20
3.686290731
 10
14.518372334
 20
3.683711054
 10
14.5225104825
 20
3.681386342
 10
14.5266398158
 20
3.6793231206
 10
14.5307482002
 20
3.6775274365
 10
14.5348239166
 20
3.676004498
 10
14.538855246
 20
3.6747585554
 10
14.5428303659
 20
3.6737934399
 10
14.5467380756
 20
3.6731116654
 10
14.5505669675
 20
3.6727152666
 10
14.5543059447
 20
3.6726056198
 10
14.5579443253
 20
3.6727827838
 10
14.5614716349
 20
3.6732463385
 10
14.5648776063
 20
3.6739949056
 10
14.5681524911
 20
3.6750264485
 10
14.5712868519
 20
3.6763377926
 10
14.574271666
 20
3.6779252845
 10
14.577098222
 20
3.6797844923
 10
14.5797584306
 20
3.6819097866
 10
14.5822447214
 20
3.6842949992
 10
14.5845497308
 20
3.6869336025
 10
14.5866670292
 20
3.6898176921
 10
14.5885902903
 20
3.6929390637
 10
14.5903141213
 20
3.6962887352
 10
14.5918335442
 20
3.6998570056
 10
14.5931440997
 20
3.7036335154
 10
14.5942420541
 20
3.7076076059
 10
14.5951241926
 20
3.7117676003
 10
14.5957881299
 20
3.7161015825
 10
14.5962316882
 20
3.7205970377
 10
14.596453934
 20
3.7252409719
 10
14.596453934
 20
3.730020032
 10
14.5962316882
 20
3.7349205658
 10
14.5957881299
 20
3.7399281424
 10
14.5951241926
 20
3.7450286903
 10
14.5942420541
 20
3.7502071802
 10
14.5931440997
 20
3.7554488221
 10
14.5918335442
 20
3.7607385868
 10
14.5903141213
 20
3.7660611456
 10
14.5885902903
 20
3.7714011099
 10
14.5866670292
 20
3.7767430316
 10
14.5845497308
 20
3.7820717017
 10
14.5822447214
 20
3.7873714927
 10
14.5797584306
 20
3.7926274352
 10
14.577098222
 20
3.797824141
 10
14.574271666
 20
3.8029467011
 10
14.5712868519
 20
3.807980386
 10
14.5681524911
 20
3.8129107058
 10
14.5648776063
 20
3.8177232304
 10
14.5614716349
 20
3.8224043683
 10
14.5579443253
 20
3.8269404679
 10
14.5543059447
 20
3.8313184167
 10
14.5505669675
 20
3.8355255813
 10
14.5467380756
 20
3.8395500467
 10
14.5428303659
 20
3.8433800179
 10
14.538855246
 20
3.8470044781
 10
14.5348239166
 20
3.8504130094
 10
14.5307482002
 20
3.8535957929
 10
14.5266398158
 20
3.8565435484
 10
14.5225104825
 20
3.8592479538
 10
14.518372334
 20
3.8617009266
 10
14.5142370893
 20
3.8638957015
 10
14.5101166748
 20
3.8658259924
 10
14.5060231207
 20
3.8674859323
 10
14.5019681458
 20
3.8688707919
 10
14.4979634693
 20
3.8699767998
 10
14.4940207063
 20
3.8708004842
 10
14.4901510573
 20
3.8713396905
 10
14.4863657227
 20
3.8715928628
 10
14.4826756956
 20
3.8715590443
 10
14.4790915541
 20
3.871238595
 10
14.4756236691
 20
3.8706323543
 10
14.4722819965
 20
3.8697419998
 10
14.4690761811
 20
3.8685701071
 10
14.4660155566
 20
3.8671201501
 10
14.4631088345
 20
3.8653962014
 10
14.4603644151
 20
3.8634032317
 10
14.4577902838
 20
3.8611471698
 10
14.4553937522
 20
3.8586343336
 10
14.4531818205
 20
3.8558719392
 10
14.4511608148
 20
3.8528681906
 10
14.4493365947
 20
3.8496314415
 10
14.4477143973
 20
3.846171243
 10
14.4462989414
 20
3.8424975654
 10
14.4450942198
 20
3.8386207982
 10
14.4441038104
 20
3.8345524084
 10
14.4433304613
 20
3.8303038632
 10
14.4427765061
 20
3.8258875876
 10
14.4424435004
 20
3.8213162164
 10
14.4423323775
 20
3.8166029827
  0
LWPOLYLINE
  5
1B2
330
1F
100
AcDbEntity
  8
0
  6
Continuous
 62
     7
370
    15
100
AcDbPolyline
 90
      118
 70
   128
 43
0.0
 10
12.7403263782
 20
4.799150132
 10
12.7402152553
 20
4.8039916654
 10
12.7398822495
 20
4.808947517
 10
12.7393282944
 20
4.8140033756
 10
12.7385549453
 20
4.8191448106
 10
12.7375645359
 20
4.8243567027
 10
12.7363598142
 20
4.829624412
 10
12.7349443584
 20
4.8349323401
 10
12.733322161
 20
4.8402654877
 10
12.7314979409
 20
4.8456084366
 10
12.7294769352
 20
4.8509455887
 10
12.7272650035
 20
4.8562618252
 10
12.7248684718
 20
4.8615416378
 10
12.7222943406
 20
4.8667697284
 10
12.7195499212
 20
4.8719313373
 10
12.7166431991
 20
4.8770113159
 10
12.7135825746
 20
4.8819949947
 10
12.7103767592
 20
4.8868682431
 10
12.7070350866
 20
4.8916168107
 10
12.7035672016
 20
4.8962269862
 10
12.6999830601
 20
4.9006855971
 10
12.696293033
 20
4.9049798303
 10
12.6925076984
 20
4.9090971122
 10
12.6886380494
 20
4.9130257076
 10
12.6846952864
 20
4.9167542405
 10
12.6806906098
 20
4.9202719337
 10
12.676635635
 20
4.9235688485
 10
12.6725420809
 20
4.9266352256
 10
12.6684216664
 20
4.9294622639
 10
12.6642864217
 20
4.9320419409
 10
12.6601482732
 20
4.9343667726
 10
12.6560189399
 20
4.936429994
 10
12.6519105555
 20
4.9382256782
 10
12.6478348391
 20
4.9397486167
 10
12.6438035097
 20
4.9409945593
 10
12.6398283898
 20
4.9419596747
 10
12.63592068
 20
4.9426414493
 10
12.6320917882
 20
4.9430377283
 10
12.628352811
 20
4.9431474948
 10
12.6247144304
 20
4.9429703309
 10
12.6211871208
 20
4.9425067762
 10
12.6177811493
 20
4.9417580892
 10
12.6145062645
 20
4.9407266661
 10
12.6113719038
 20
4.9394152023
 10
12.6083870897
 20
4.9378277104
 10
12.6055605337
 20
4.9359686224
 10
12.602900325
 20
4.9338433281
 10
12.6004140343
 20
4.9314579957
 10
12.5981090248
 20
4.9288195121
 10
12.5959917265
 20
4.9259354226
 10
12.5940684654
 20
4.9228140509
 10
12.5923446344
 20
4.9194643795
 10
12.5908252115
 20
4.9158961091
 10
12.589514656
 20
4.9121194795
 10
12.5884167016
 20
4.9081455088
 10
12.5875345631
 20
4.9039855143
 10
12.5868706258
 20
4.8996515321
 10
12.5864270675
 20
4.895156077
 10
12.5862048217
 20
4.8905121428
 10
12.5862048217
 20
4.8857330826
 10
12.5864270675
 20
4.8808325489
 10
12.5868706258
 20
4.8758249723
 10
12.5875345631
 20
4.8707244243
 10
12.5884167016
 20
4.8655459345
 10
12.589514656
 20
4.8603041728
 10
12.5908252115
 20
4.8550145278
 10
12.5923446344
 20
4.8496919691
 10
12.5940684654
 20
4.8443520047
 10
12.5959917265
 20
4.8390100831
 10
12.5981090248
 20
4.8336814129
 10
12.6004140343
 20
4.8283815022
 10
12.602900325
 20
4.8231256795
 10
12.6055605337
 20
4.8179289736
 10
12.6083870897
 20
4.8128062937
 10
12.6113719038
 20
4.8077726089
 10
12.6145062645
 20
4.8028424089
 10
12.6177811493
 20
4.7980297645
 10
12.6211871208
 20
4.7933487464
 10
12.6247144304
 20
4.7888126468
 10
12.628352811
 20
4.7844346979
 10
12.6320917882
 20
4.7802274136
 10
12.63592068
 20
4.7762030679
 10
12.6398283898
 20
4.7723730968
 10
12.6438035097
 20
4.7687486366
 10
12.6478348391
 20
4.7653401052
 10
12.6519105555
 20
4.7621573217
 10
12.6560189399
 20
4.7592095662
 10
12.6601482732
 20
4.7565051609
 10
12.6642864217
 20
4.7540520683
 10
12.6684216664
 20
4.7518572934
 10
12.6725420809
 20
4.7499271222
 10
12.676635635
 20
4.7482671823
 10
12.6806906098
 20
4.7468823228
 10
12.6846952864
 20
4.7457763148
 10
12.6886380494
 20
4.7449526304
 10
12.6925076984
 20
4.7444134242
 10
12.696293033
 20
4.7441602518
 10
12.6999830601
 20
4.7441940704
 10
12.7035672016
 20
4.7445145197
 10
12.7070350866
 20
4.7451207603
 10
12.7103767592
 20
4.7460111149
 10
12.7135825746
 20
4.7471830076
 10
12.7166431991
 20
4.7486329646
 10
12.7195499212
 20
4.7503569133
 10
12.7222943406
 20
4.7523497632
 10
12.7248684718
 20
4.7546059449
 10
12.7272650035
 20
4.7571187811
 10
12.7294769352
 20
4.7598810557
 10
12.7314979409
 20
4.7628849241
 10
12.733322161
 20
4.7661216732
 10
12.7349443584
 20
4.7695818717
 10
12.7363598142
 20
4.7732555492
 10
12.7375645359
 20
4.7771323165
 10
12.7385549453
 20
4.7812007062
 10
12.7393282944
 20
4.7854492515
 10
12.7398822495
 20
4.789865527
 10
12.7402152553
 20
4.7944368983
 10
12.7403263782
 20
4.799150132
  0
LINE
  5
1B3
330
1F
100
AcDbEntity
  8
0
  6
Continuous
 62
     7
370
    15
100
AcDbLine
 10
14.7668943854
 20
6.7982189137
 30
0.0
 11
14.6961837069
 21
6.7573985079
 31
0.0
  0
LINE
  5
1B4
330
1F
100
AcDbEntity
  8
0
  6
Continuous
 62
     7
370
    15
100
AcDbLine
 10
14.7668943854
 20
3.5320557057
 30
0.0
 11
14.7668943854
 21
6.7982189137
 31
0.0
  0
LINE
  5
1B5
330
1F
100
AcDbEntity
  8
0
  6
Continuous
 62
     7
370
    15
100
AcDbLine
 10
14.7668943854
 20
3.5320557057
 30
0.0
 11
14.6961837069
 21
3.4912352998
 31
0.0
  0
LINE
  5
1B6
330
1F
100
AcDbEntity
  8
0
  6
Continuous
 62
     7
370
    15
100
AcDbLine
 10
12.5571857274
 20
8.0738565693
 30
0.0
 11
12.4864750488
 21
8.0330361635
 31
0.0
  0
LINE
  5
1B7
330
1F
100
AcDbEntity
  8
0
  6
Continuous
 62
     7
370
    15
100
AcDbLine
 10
14.7668943854
 20
6.7982189137
 30
0.0
 11
12.5571857274
 21
8.0738565693
 31
0.0
  0
ARC
  5
1B8
330
1F
100
AcDbEntity
  8
0
  6
Continuous
 62
     7
370
    15
100
AcDbCircle
 10
14.6762165102
 20
6.7711512842
 30
0.0
 40
0.1629383090497038
100
AcDbArc
 50
179.3914499894
 51
240.60315311
  0
ARC
  5
1B9
330
1F
100
AcDbEntity
  8
0
  6
Continuous
 62
     7
370
    15
100
AcDbCircle
 10
12.8215442787
 20
7.8439687356
 30
0.0
 40
0.164784376213407
100
AcDbArc
 50
182.2576480886
 51
240.3726522492
  0
LWPOLYLINE
  5
1BA
330
1F
100
AcDbEntity
  8
0
  6
Continuous
 62
     7
370
    15
100
AcDbPolyline
 90
        3
 70
   128
 43
0.0
 10
12.6571320421
 20
7.8444175272
 10
12.6569988813
 20
7.8421906159
 10
12.6568878103
 20
7.8374773523
  0
ARC
  5
1BB
330
1F
100
AcDbEntity
  8
0
  6
Continuous
 62
     7
370
    15
100
AcDbCircle
 10
14.6776996302
 20
3.8639148358
 30
0.0
 40
0.1647844844000831
100
AcDbArc
 50
182.2576688309
 51
240.3726520828
  0
LWPOLYLINE
  5
1BC
330
1F
100
AcDbEntity
  8
0
  6
Continuous
 62
     7
370
    15
100
AcDbPolyline
 90
        3
 70
   128
 43
0.0
 10
14.5132873916
 20
3.8643635036
 10
14.513154179
 20
3.8621366222
 10
14.5130430561
 20
3.8574233885
  0
ARC
  5
1BD
330
1F
100
AcDbEntity
  8
0
  6
Continuous
 62
     7
370
    15
100
AcDbCircle
 10
12.8200611264
 20
4.9341685899
 30
0.0
 40
0.1629382748712941
100
AcDbArc
 50
179.3914426282
 51
240.6031811512
  0
ENDSEC
  0
SECTION
  2
OBJECTS
  0
DICTIONARY
  5
C
330
0
100
AcDbDictionary
281
     1
  3
ACAD_GROUP
350
D
  3
ACAD_LAYOUT
350
1A
  3
ACAD_MLINESTYLE
350
17
  3
ACAD_PLOTSETTINGS
350
19
  3
ACAD_PLOTSTYLENAME
350
E
  3
ACAD_SCALELIST
350
47
  0
DICTIONARY
  5
D
102
{ACAD_REACTORS
330
C
102
}
330
C
100
AcDbDictionary
281
     1
  0
DICTIONARY
  5
1A
102
{ACAD_REACTORS
330
C
102
}
330
C
100
AcDbDictionary
281
     1
  3
Layout1
350
1E
  3
Layout2
350
26
  3
Model
350
22
  0
DICTIONARY
  5
17
102
{ACAD_REACTORS
330
C
102
}
330
C
100
AcDbDictionary
281
     1
  3
Standard
350
18
  0
DICTIONARY
  5
19
102
{ACAD_REACTORS
330
C
102
}
330
C
100
AcDbDictionary
281
     1
  0
ACDBDICTIONARYWDFLT
  5
E
102
{ACAD_REACTORS
330
C
102
}
330
C
100
AcDbDictionary
281
     1
  3
Normal
350
F
100
AcDbDictionaryWithDefault
340
F
  0
DICTIONARY
  5
47
102
{ACAD_REACTORS
330
C
102
}
330
C
100
AcDbDictionary
281
     1
  3
A0
350
48
  3
A1
350
49
  3
A2
350
4A
  3
A3
350
4B
  3
A4
350
4C
  3
A5
350
4D
  3
A6
350
4E
  3
A7
350
4F
  3
A8
350
50
  3
A9
350
51
  3
B0
350
52
  3
B1
350
53
  3
B2
350
54
  3
B3
350
55
  3
B4
350
56
  3
B5
350
57
  3
B6
350
58
  3
B7
350
59
  3
B8
350
5A
  3
B9
350
5B
  3
C0
350
5C
  3
C1
350
5D
  3
C2
350
5E
  3
C3
350
5F
  3
C4
350
60
  3
C5
350
61
  3
C6
350
62
  3
C7
350
63
  3
C8
350
64
  3
C9
350
65
  3
D0
350
66
  3
D1
350
67
  3
D2
350
68
  0
LAYOUT
  5
1E
102
{ACAD_REACTORS
330
1A
102
}
330
1A
100
AcDbPlotSettings
  1

  2
none_device
  4

  6

 40
0.0
 41
0.0
 42
0.0
 43
0.0
 44
0.0
 45
0.0
 46
0.0
 47
0.0
 48
0.0
 49
0.0
140
0.0
141
0.0
142
1.0
143
1.0
 70
   688
 72
     0
 73
     0
 74
     5
  7

 75
    16
147
1.0
148
0.0
149
0.0
100
AcDbLayout
  1
Layout1
 70
     1
 71
     1
 10
0.0
 20
0.0
 11
12.0
 21
9.0
 12
0.0
 22
0.0
 32
0.0
 14
1.0000000000E+20
 24
1.0000000000E+20
 34
1.0000000000E+20
 15
-1.0000000000E+20
 25
-1.0000000000E+20
 35
-1.0000000000E+20
146
0.0
 13
0.0
 23
0.0
 33
0.0
 16
1.0
 26
0.0
 36
0.0
 17
0.0
 27
1.0
 37
0.0
 76
     0
330
1B
  0
LAYOUT
  5
26
102
{ACAD_REACTORS
330
1A
102
}
330
1A
100
AcDbPlotSettings
  1

  2
none_device
  4

  6

 40
0.0
 41
0.0
 42
0.0
 43
0.0
 44
0.0
 45
0.0
 46
0.0
 47
0.0
 48
0.0
 49
0.0
140
0.0
141
0.0
142
1.0
143
1.0
 70
   688
 72
     0
 73
     0
 74
     5
  7

 75
    16
147
1.0
148
0.0
149
0.0
100
AcDbLayout
  1
Layout2
 70
     1
 71
     2
 10
0.0
 20
0.0
 11
0.0
 21
0.0
 12
0.0
 22
0.0
 32
0.0
 14
0.0
 24
0.0
 34
0.0
 15
0.0
 25
0.0
 35
0.0
146
0.0
 13
0.0
 23
0.0
 33
0.0
 16
1.0
 26
0.0
 36
0.0
 17
0.0
 27
1.0
 37
0.0
 76
     0
330
23
  0
LAYOUT
  5
22
102
{ACAD_REACTORS
330
1A
102
}
330
1A
100
AcDbPlotSettings
  1

  2
none_device
  4
Letter_(8.50_x_11.00_Inches)
  6

 40
6.35
 41
6.35
 42
6.35000508
 43
6.35000508
 44
215.9
 45
279.4
 46
0.0
 47
0.0
 48
0.0
 49
0.0
140
0.0
141
0.0
142
1.0
143
1.0
 70
  1712
 72
     0
 73
     0
 74
     0
  7

 75
     0
147
1.0
148
0.0
149
0.0
100
AcDbLayout
  1
Model
 70
     1
 71
     0
 10
0.0
 20
0.0
 11
17.0
 21
11.0
 12
0.0
 22
0.0
 32
0.0
 14
0.0
 24
0.0
 34
0.0
 15
17.0
 25
11.0
 35
0.0
146
0.0
 13
0.0
 23
0.0
 33
0.0
 16
1.0
 26
0.0
 36
0.0
 17
0.0
 27
1.0
 37
0.0
 76
     0
330
1F
331
29
  0
MLINESTYLE
  5
18
102
{ACAD_REACTORS
330
17
102
}
330
17
100
AcDbMlineStyle
  2
Standard
 70
     0
  3

 62
   256
 51
90.0
 52
90.0
 71
     2
 49
0.5
 62
   256
  6
BYLAYER
 49
-0.5
 62
   256
  6
BYLAYER
  0
ACDBPLACEHOLDER
  5
F
102
{ACAD_REACTORS
330
E
102
}
330
E
  0
SCALE
  5
48
102
{ACAD_REACTORS
330
47
102
}
330
47
100
AcDbScale
 70
     0
300
1:1
140
1.0
141
1.0
290
     1
  0
SCALE
  5
49
102
{ACAD_REACTORS
330
47
102
}
330
47
100
AcDbScale
 70
     0
300
1:2
140
1.0
141
2.0
290
     0
  0
SCALE
  5
4A
102
{ACAD_REACTORS
330
47
102
}
330
47
100
AcDbScale
 70
     0
300
1:4
140
1.0
141
4.0
290
     0
  0
SCALE
  5
4B
102
{ACAD_REACTORS
330
47
102
}
330
47
100
AcDbScale
 70
     0
300
1:5
140
1.0
141
5.0
290
     0
  0
SCALE
  5
4C
102
{ACAD_REACTORS
330
47
102
}
330
47
100
AcDbScale
 70
     0
300
1:8
140
1.0
141
8.0
290
     0
  0
SCALE
  5
4D
102
{ACAD_REACTORS
330
47
102
}
330
47
100
AcDbScale
 70
     0
300
1:10
140
1.0
141
10.0
290
     0
  0
SCALE
  5
4E
102
{ACAD_REACTORS
330
47
102
}
330
47
100
AcDbScale
 70
     0
300
1:16
140
1.0
141
16.0
290
     0
  0
SCALE
  5
4F
102
{ACAD_REACTORS
330
47
102
}
330
47
100
AcDbScale
 70
     0
300
1:20
140
1.0
141
20.0
290
     0
  0
SCALE
  5
50
102
{ACAD_REACTORS
330
47
102
}
330
47
100
AcDbScale
 70
     0
300
1:30
140
1.0
141
30.0
290
     0
  0
SCALE
  5
51
102
{ACAD_REACTORS
330
47
102
}
330
47
100
AcDbScale
 70
     0
300
1:40
140
1.0
141
40.0
290
     0
  0
SCALE
  5
52
102
{ACAD_REACTORS
330
47
102
}
330
47
100
AcDbScale
 70
     0
300
1:50
140
1.0
141
50.0
290
     0
  0
SCALE
  5
53
102
{ACAD_REACTORS
330
47
102
}
330
47
100
AcDbScale
 70
     0
300
1:100
140
1.0
141
100.0
290
     0
  0
SCALE
  5
54
102
{ACAD_REACTORS
330
47
102
}
330
47
100
AcDbScale
 70
     0
300
2:1
140
2.0
141
1.0
290
     0
  0
SCALE
  5
55
102
{ACAD_REACTORS
330
47
102
}
330
47
100
AcDbScale
 70
     0
300
4:1
140
4.0
141
1.0
290
     0
  0
SCALE
  5
56
102
{ACAD_REACTORS
330
47
102
}
330
47
100
AcDbScale
 70
     0
300
8:1
140
8.0
141
1.0
290
     0
  0
SCALE
  5
57
102
{ACAD_REACTORS
330
47
102
}
330
47
100
AcDbScale
 70
     0
300
10:1
140
10.0
141
1.0
290
     0
  0
SCALE
  5
58
102
{ACAD_REACTORS
330
47
102
}
330
47
100
AcDbScale
 70
     0
300
100:1
140
100.0
141
1.0
290
     0
  0
SCALE
  5
59
102
{ACAD_REACTORS
330
47
102
}
330
47
100
AcDbScale
 70
     0
300
1/128" = 1'-0"
140
0.0078125
141
12.0
290
     0
  0
SCALE
  5
5A
102
{ACAD_REACTORS
330
47
102
}
330
47
100
AcDbScale
 70
     0
300
1/64" = 1'-0"
140
0.015625
141
12.0
290
     0
  0
SCALE
  5
5B
102
{ACAD_REACTORS
330
47
102
}
330
47
100
AcDbScale
 70
     0
300
1/32" = 1'-0"
140
0.03125
141
12.0
290
     0
  0
SCALE
  5
5C
102
{ACAD_REACTORS
330
47
102
}
330
47
100
AcDbScale
 70
     0
300
1/16" = 1'-0"
140
0.0625
141
12.0
290
     0
  0
SCALE
  5
5D
102
{ACAD_REACTORS
330
47
102
}
330
47
100
AcDbScale
 70
     0
300
3/32" = 1'-0"
140
0.09375
141
12.0
290
     0
  0
SCALE
  5
5E
102
{ACAD_REACTORS
330
47
102
}
330
47
100
AcDbScale
 70
     0
300
1/8" = 1'-0"
140
0.125
141
12.0
290
     0
  0
SCALE
  5
5F
102
{ACAD_REACTORS
330
47
102
}
330
47
100
AcDbScale
 70
     0
300
3/16" = 1'-0"
140
0.1875
141
12.0
290
     0
  0
SCALE
  5
60
102
{ACAD_REACTORS
330
47
102
}
330
47
100
AcDbScale
 70
     0
300
1/4" = 1'-0"
140
0.25
141
12.0
290
     0
  0
SCALE
  5
61
102
{ACAD_REACTORS
330
47
102
}
330
47
100
AcDbScale
 70
     0
300
3/8" = 1'-0"
140
0.375
141
12.0
290
     0
  0
SCALE
  5
62
102
{ACAD_REACTORS
330
47
102
}
330
47
100
AcDbScale
 70
     0
300
1/2" = 1'-0"
140
0.5
141
12.0
290
     0
  0
SCALE
  5
63
102
{ACAD_REACTORS
330
47
102
}
330
47
100
AcDbScale
 70
     0
300
3/4" = 1'-0"
140
0.75
141
12.0
290
     0
  0
SCALE
  5
64
102
{ACAD_REACTORS
330
47
102
}
330
47
100
AcDbScale
 70
     0
300
1" = 1'-0"
140
1.0
141
12.0
290
     0
  0
SCALE
  5
65
102
{ACAD_REACTORS
330
47
102
}
330
47
100
AcDbScale
 70
     0
300
1-1/2" = 1'-0"
140
1.5
141
12.0
290
     0
  0
SCALE
  5
66
102
{ACAD_REACTORS
330
47
102
}
330
47
100
AcDbScale
 70
     0
300
3" = 1'-0"
140
3.0
141
12.0
290
     0
  0
SCALE
  5
67
102
{ACAD_REACTORS
330
47
102
}
330
47
100
AcDbScale
 70
     0
300
6" = 1'-0"
140
6.0
141
12.0
290
     0
  0
SCALE
  5
68
102
{ACAD_REACTORS
330
47
102
}
330
47
100
AcDbScale
 70
     0
300
1'-0" = 1'-0"
140
12.0
141
12.0
290
     0
  0
ENDSEC
  0
EOF
