  0
SECTION
  2
HEADER
  9
$ACADVER
  1
AC1015
  9
$ACADMAINTVER
 70
     6
  9
$DWGCODEPAGE
  3
ANSI_1252
  9
$INSBASE
 10
0.0
 20
0.0
 30
0.0
  9
$EXTMIN
 10
0.0
 20
0.0
 30
0.0
  9
$EXTMAX
 10
17.0
 20
11.0
 30
0.0
  9
$LIMMIN
 10
0.0
 20
0.0
  9
$LIMMAX
 10
17.0
 20
11.0
  9
$ORTHOMODE
 70
     0
  9
$REGENMODE
 70
     1
  9
$FILLMODE
 70
     1
  9
$QTEXTMODE
 70
     0
  9
$MIRRTEXT
 70
     1
  9
$LTSCALE
 40
1.0
  9
$ATTMODE
 70
     1
  9
$TEXTSIZE
 40
0.125
  9
$TRACEWID
 40
0.05
  9
$TEXTSTYLE
  7
Standard
  9
$CLAYER
  8
0
  9
$CELTYPE
  6
ByLayer
  9
$CECOLOR
 62
   256
  9
$CELTSCALE
 40
1.0
  9
$DISPSILH
 70
     0
  9
$DIMSCALE
 40
1.0
  9
$DIMASZ
 40
0.094
  9
$DIMEXO
 40
0.05
  9
$DIMDLI
 40
0.38
  9
$DIMRND
 40
0.0
  9
$DIMDLE
 40
0.0
  9
$DIMEXE
 40
0.125
  9
$DIMTP
 40
0.0
  9
$DIMTM
 40
0.0
  9
$DIMTXT
 40
0.125
  9
$DIMCEN
 40
0.09
  9
$DIMTSZ
 40
0.0
  9
$DIMTOL
 70
     0
  9
$DIMLIM
 70
     0
  9
$DIMTIH
 70
     1
  9
$DIMTOH
 70
     1
  9
$DIMSE1
 70
     0
  9
$DIMSE2
 70
     0
  9
$DIMTAD
 70
     0
  9
$DIMZIN
 70
     0
  9
$DIMBLK
  1

  9
$DIMASO
 70
     1
  9
$DIMSHO
 70
     1
  9
$DIMPOST
  1

  9
$DIMAPOST
  1

  9
$DIMALT
 70
     0
  9
$DIMALTD
 70
     2
  9
$DIMALTF
 40
25.4
  9
$DIMLFAC
 40
1.0
  9
$DIMTOFL
 70
     0
  9
$DIMTVP
 40
0.0
  9
$DIMTIX
 70
     0
  9
$DIMSOXD
 70
     0
  9
$DIMSAH
 70
     0
  9
$DIMBLK1
  1

  9
$DIMBLK2
  1

  9
$DIMSTYLE
  2
Standard
  9
$DIMCLRD
 70
     0
  9
$DIMCLRE
 70
     0
  9
$DIMCLRT
 70
     0
  9
$DIMTFAC
 40
1.0
  9
$DIMGAP
 40
0.06
  9
$DIMJUST
 70
     0
  9
$DIMSD1
 70
     0
  9
$DIMSD2
 70
     0
  9
$DIMTOLJ
 70
     1
  9
$DIMTZIN
 70
     0
  9
$DIMALTZ
 70
     0
  9
$DIMALTTZ
 70
     0
  9
$DIMUPT
 70
     0
  9
$DIMDEC
 70
     2
  9
$DIMTDEC
 70
     2
  9
$DIMALTU
 70
     2
  9
$DIMALTTD
 70
     2
  9
$DIMTXSTY
  7
Standard
  9
$DIMAUNIT
 70
     0
  9
$DIMADEC
 70
     3
  9
$DIMALTRND
 40
0.0
  9
$DIMAZIN
 70
     0
  9
$DIMDSEP
 70
    46
  9
$DIMATFIT
 70
     3
  9
$DIMFRAC
 70
     0
  9
$DIMLDRBLK
  1

  9
$DIMLUNIT
 70
     2
  9
$DIMLWD
 70
    -2
  9
$DIMLWE
 70
    -2
  9
$DIMTMOVE
 70
     0
  9
$LUNITS
 70
     2
  9
$LUPREC
 70
     2
  9
$SKETCHINC
 40
0.1
  9
$FILLETRAD
 40
0.5
  9
$AUNITS
 70
     0
  9
$AUPREC
 70
     3
  9
$MENU
  1
.
  9
$ELEVATION
 40
0.0
  9
$PELEVATION
 40
0.0
  9
$THICKNESS
 40
0.0
  9
$LIMCHECK
 70
     0
  9
$CHAMFERA
 40
0.0
  9
$CHAMFERB
 40
0.0
  9
$CHAMFERC
 40
0.0
  9
$CHAMFERD
 40
0.0
  9
$SKPOLY
 70
     0
  9
$TDCREATE
 40
2457571.684734792
  9
$TDUCREATE
 40
2457571.851401458
  9
$TDUPDATE
 40
2457571.684736134
  9
$TDUUPDATE
 40
2457571.851402801
  9
$TDINDWG
 40
0.0000000116
  9
$TDUSRTIMER
 40
0.0000000116
  9
$USRTIMER
 70
     1
  9
$ANGBASE
 50
0.0
  9
$ANGDIR
 70
     0
  9
$PDMODE
 70
     0
  9
$PDSIZE
 40
-1.0
  9
$PLINEWID
 40
0.0
  9
$SPLFRAME
 70
     0
  9
$SPLINETYPE
 70
     6
  9
$SPLINESEGS
 70
     8
  9
$HANDSEED
  5
1B7
  9
$SURFTAB1
 70
     6
  9
$SURFTAB2
 70
     6
  9
$SURFTYPE
 70
     6
  9
$SURFU
 70
     6
  9
$SURFV
 70
     6
  9
$UCSBASE
  2

  9
$UCSNAME
  2

  9
$UCSORG
 10
0.0
 20
0.0
 30
0.0
  9
$UCSXDIR
 10
1.0
 20
0.0
 30
0.0
  9
$UCSYDIR
 10
0.0
 20
1.0
 30
0.0
  9
$UCSORTHOREF
  2

  9
$UCSORTHOVIEW
 70
     0
  9
$UCSORGTOP
 10
0.0
 20
0.0
 30
0.0
  9
$UCSORGBOTTOM
 10
0.0
 20
0.0
 30
0.0
  9
$UCSORGLEFT
 10
0.0
 20
0.0
 30
0.0
  9
$UCSORGRIGHT
 10
0.0
 20
0.0
 30
0.0
  9
$UCSORGFRONT
 10
0.0
 20
0.0
 30
0.0
  9
$UCSORGBACK
 10
0.0
 20
0.0
 30
0.0
  9
$PUCSBASE
  2

  9
$PUCSNAME
  2

  9
$PUCSORG
 10
0.0
 20
0.0
 30
0.0
  9
$PUCSXDIR
 10
1.0
 20
0.0
 30
0.0
  9
$PUCSYDIR
 10
0.0
 20
1.0
 30
0.0
  9
$PUCSORTHOREF
  2

  9
$PUCSORTHOVIEW
 70
     0
  9
$PUCSORGTOP
 10
0.0
 20
0.0
 30
0.0
  9
$PUCSORGBOTTOM
 10
0.0
 20
0.0
 30
0.0
  9
$PUCSORGLEFT
 10
0.0
 20
0.0
 30
0.0
  9
$PUCSORGRIGHT
 10
0.0
 20
0.0
 30
0.0
  9
$PUCSORGFRONT
 10
0.0
 20
0.0
 30
0.0
  9
$PUCSORGBACK
 10
0.0
 20
0.0
 30
0.0
  9
$USERI1
 70
     0
  9
$USERI2
 70
     0
  9
$USERI3
 70
     0
  9
$USERI4
 70
     0
  9
$USERI5
 70
     0
  9
$USERR1
 40
0.0
  9
$USERR2
 40
0.0
  9
$USERR3
 40
0.0
  9
$USERR4
 40
0.0
  9
$USERR5
 40
0.0
  9
$WORLDVIEW
 70
     1
  9
$SHADEDGE
 70
     3
  9
$SHADEDIF
 70
    70
  9
$TILEMODE
 70
     1
  9
$MAXACTVP
 70
    64
  9
$PINSBASE
 10
0.0
 20
0.0
 30
0.0
  9
$PLIMCHECK
 70
     0
  9
$PEXTMIN
 10
1.0000000000E+20
 20
1.0000000000E+20
 30
1.0000000000E+20
  9
$PEXTMAX
 10
-1.0000000000E+20
 20
-1.0000000000E+20
 30
-1.0000000000E+20
  9
$PLIMMIN
 10
0.0
 20
0.0
  9
$PLIMMAX
 10
12.0
 20
9.0
  9
$UNITMODE
 70
     0
  9
$VISRETAIN
 70
     1
  9
$PLINEGEN
 70
     0
  9
$PSLTSCALE
 70
     1
  9
$TREEDEPTH
 70
  3020
  9
$CMLSTYLE
  2
Standard
  9
$CMLJUST
 70
     0
  9
$CMLSCALE
 40
1.0
  9
$PROXYGRAPHICS
 70
     1
  9
$MEASUREMENT
 70
     0
  9
$CELWEIGHT
370
    -1
  9
$ENDCAPS
280
     0
  9
$JOINSTYLE
280
     0
  9
$LWDISPLAY
290
     1
  9
$INSUNITS
 70
     1
  9
$HYPERLINKBASE
  1

  9
$STYLESHEET
  1

  9
$XEDIT
290
     1
  9
$CEPSNTYPE
380
     0
  9
$PSTYLEMODE
290
     1
  9
$FINGERPRINTGUID
  2
{E5E11DA7-888D-407B-B746-29CDB6AE1C8F}
  9
$VERSIONGUID
  2
{FAEB1C32-E019-11D5-929B-00C0DF256EC4}
  9
$EXTNAMES
290
     1
  9
$PSVPSCALE
 40
0.0
  9
$OLESTARTUP
290
     0
  0
ENDSEC
  0
SECTION
  2
CLASSES
  0
CLASS
  1
ACDBDICTIONARYWDFLT
  2
AcDbDictionaryWithDefault
  3
ObjectDBX Classes
 90
        0
280
     0
281
     0
  0
CLASS
  1
VISUALSTYLE
  2
AcDbVisualStyle
  3
ObjectDBX Classes
 90
     4095
280
     0
281
     0
  0
CLASS
  1
MATERIAL
  2
AcDbMaterial
  3
ObjectDBX Classes
 90
     1153
280
     0
281
     0
  0
CLASS
  1
SCALE
  2
AcDbScale
  3
ObjectDBX Classes
 90
     1153
280
     0
281
     0
  0
CLASS
  1
TABLESTYLE
  2
AcDbTableStyle
  3
ObjectDBX Classes
 90
     4095
280
     0
281
     0
  0
CLASS
  1
MLEADERSTYLE
  2
AcDbMLeaderStyle
  3
ACDB_MLEADERSTYLE_CLASS
 90
     4095
280
     0
281
     0
  0
CLASS
  1
SUN
  2
AcDbSun
  3
SCENEOE
 90
     1153
280
     0
281
     0
  0
CLASS
  1
ACDBPLACEHOLDER
  2
AcDbPlaceHolder
  3
ObjectDBX Classes
 90
        0
280
     0
281
     0
  0
CLASS
  1
LAYOUT
  2
AcDbLayout
  3
ObjectDBX Classes
 90
        0
280
     0
281
     0
  0
ENDSEC
  0
SECTION
  2
TABLES
  0
TABLE
  2
VPORT
  5
8
330
0
100
AcDbSymbolTable
 70
     1
  0
VPORT
  5
29
330
8
100
AcDbSymbolTableRecord
100
AcDbViewportTableRecord
  2
*Active
 70
     0
 10
0.0
 20
0.0
 11
1.0
 21
1.0
 12
8.5
 22
5.5
 13
0.0
 23
0.0
 14
0.5
 24
0.5
 15
0.5
 25
0.5
 16
0.0
 26
0.0
 36
1.0
 17
0.0
 27
0.0
 37
0.0
 40
11.0
 41
1.5454545455
 42
50.0
 43
0.0
 44
0.0
 50
0.0
 51
0.0
 71
     0
 72
  2000
 73
     1
 74
     3
 75
     0
 76
     0
 77
     0
 78
     0
281
     0
 65
     1
110
0.0
120
0.0
130
0.0
111
1.0
121
0.0
131
0.0
112
0.0
122
1.0
132
0.0
 79
     0
146
0.0
  0
ENDTAB
  0
TABLE
  2
LTYPE
  5
5
330
0
100
AcDbSymbolTable
 70
     6
  0
LTYPE
  5
14
330
5
100
AcDbSymbolTableRecord
100
AcDbLinetypeTableRecord
  2
ByBlock
 70
     0
  3

 72
    65
 73
     0
 40
0.0
  0
LTYPE
  5
15
330
5
100
AcDbSymbolTableRecord
100
AcDbLinetypeTableRecord
  2
ByLayer
 70
     0
  3

 72
    65
 73
     0
 40
0.0
  0
LTYPE
  5
16
330
5
100
AcDbSymbolTableRecord
100
AcDbLinetypeTableRecord
  2
Continuous
 70
     0
  3
Solid line
 72
    65
 73
     0
 40
0.0
  0
LTYPE
  5
6E
330
5
100
AcDbSymbolTableRecord
100
AcDbLinetypeTableRecord
  2
HIDDEN
 70
     0
  3
Hidden __ __ __ __ __ __ __ __ __ __ __ __ __ __
 72
    65
 73
     2
 40
0.075
 49
0.05
 74
     0
 49
-0.025
 74
     0
  0
LTYPE
  5
6F
330
5
100
AcDbSymbolTableRecord
100
AcDbLinetypeTableRecord
  2
PHANTOM
 70
     0
  3
Phantom ______  __  __  ______  __  __  ______
 72
    65
 73
     6
 40
0.5
 49
0.25
 74
     0
 49
-0.05
 74
     0
 49
0.05
 74
     0
 49
-0.05
 74
     0
 49
0.05
 74
     0
 49
-0.05
 74
     0
  0
LTYPE
  5
70
330
5
100
AcDbSymbolTableRecord
100
AcDbLinetypeTableRecord
  2
CENTER
 70
     0
  3
Center ____ _ ____ _ ____ _ ____ _ ____ _ ____
 72
    65
 73
     4
 40
0.4
 49
0.25
 74
     0
 49
-0.05
 74
     0
 49
0.05
 74
     0
 49
-0.05
 74
     0
  0
LTYPE
  5
71
330
5
100
AcDbSymbolTableRecord
100
AcDbLinetypeTableRecord
  2
CENTERX2
 70
     0
  3
Center (2x) ________  __  ________  __  _____
 72
    65
 73
     4
 40
0.8
 49
0.5
 74
     0
 49
-0.1
 74
     0
 49
0.1
 74
     0
 49
-0.1
 74
     0
  0
LTYPE
  5
72
330
5
100
AcDbSymbolTableRecord
100
AcDbLinetypeTableRecord
  2
DOT2
 70
     0
  3
Dot (.5x) ........................................
 72
    65
 73
     2
 40
0.025
 49
0.0
 74
     0
 49
-0.025
 74
     0
  0
ENDTAB
  0
TABLE
  2
LAYER
  5
2
330
0
100
AcDbSymbolTable
 70
     1
  0
LAYER
  5
10
330
2
100
AcDbSymbolTableRecord
100
AcDbLayerTableRecord
  2
0
 70
     0
 62
     7
  6
Continuous
370
    -3
390
F
  0
ENDTAB
  0
TABLE
  2
STYLE
  5
3
330
0
100
AcDbSymbolTable
 70
     4
  0
STYLE
  5
11
330
3
100
AcDbSymbolTableRecord
100
AcDbTextStyleTableRecord
  2
Standard
 70
     0
 40
0.0
 41
1.0
 50
0.0
 71
     0
 42
0.125
  3
txt
  4

  0
STYLE
  5
BA
330
3
100
AcDbSymbolTableRecord
100
AcDbTextStyleTableRecord
  2
SLDTEXTSTYLE0
 70
     0
 40
0.0
 41
0.605
 50
0.0
 71
     0
 42
0.125
  3
TXT
  4

  0
STYLE
  5
BC
330
3
100
AcDbSymbolTableRecord
100
AcDbTextStyleTableRecord
  2
SLDTEXTSTYLE1
 70
     0
 40
0.0
 41
0.75
 50
0.0
 71
     0
 42
0.125
  3
TXT
  4

  0
STYLE
  5
C0
330
3
100
AcDbSymbolTableRecord
100
AcDbTextStyleTableRecord
  2
SLDTEXTSTYLE2
 70
     0
 40
0.0
 41
0.7
 50
0.0
 71
     0
 42
0.125
  3
TXT
  4

  0
ENDTAB
  0
TABLE
  2
VIEW
  5
6
330
0
100
AcDbSymbolTable
 70
     0
  0
ENDTAB
  0
TABLE
  2
UCS
  5
7
330
0
100
AcDbSymbolTable
 70
     0
  0
ENDTAB
  0
TABLE
  2
APPID
  5
9
330
0
100
AcDbSymbolTable
 70
     1
  0
APPID
  5
12
330
9
100
AcDbSymbolTableRecord
100
AcDbRegAppTableRecord
  2
ACAD
 70
     0
  0
ENDTAB
  0
TABLE
  2
DIMSTYLE
  5
A
330
0
100
AcDbSymbolTable
 70
     5
100
AcDbDimStyleTable
  0
DIMSTYLE
105
27
330
A
100
AcDbSymbolTableRecord
100
AcDbDimStyleTableRecord
  2
Standard
 70
     0
178
     0
340
11
  0
DIMSTYLE
105
DB
102
{ACAD_REACTORS
330
DA
330
112
330
125
330
137
330
149
102
}
330
A
100
AcDbSymbolTableRecord
100
AcDbDimStyleTableRecord
  2
SLDDIMSTYLE0
 70
     0
 41
0.094
 44
0.0
 45
0.000000001
 78
    12
 79
     3
140
0.125
147
0.03125
148
0.000000001
170
     1
173
     1
178
     0
271
     2
272
     2
274
     3
276
     2
284
    12
340
BA
  0
DIMSTYLE
105
EE
102
{ACAD_REACTORS
330
ED
102
}
330
A
100
AcDbSymbolTableRecord
100
AcDbDimStyleTableRecord
  2
SLDDIMSTYLE1
 70
     0
 41
0.094
 44
0.0
 45
0.000000001
 78
     4
 79
     1
140
0.125
147
0.03125
148
0.000000001
170
     1
173
     1
178
     0
271
     2
272
     2
274
     3
276
     2
284
    12
340
BA
  0
DIMSTYLE
105
101
102
{ACAD_REACTORS
330
100
102
}
330
A
100
AcDbSymbolTableRecord
100
AcDbDimStyleTableRecord
  2
SLDDIMSTYLE2
 70
     0
 41
0.094
 44
0.0
 45
0.000000001
 78
    12
 79
     3
140
0.125
141
0.0
147
0.03125
148
0.000000001
170
     1
173
     1
178
     0
271
     2
272
     2
274
     3
276
     2
284
    12
340
BA
  0
DIMSTYLE
105
194
102
{ACAD_REACTORS
330
193
102
}
330
A
100
AcDbSymbolTableRecord
100
AcDbDimStyleTableRecord
  2
SLDDIMSTYLE3
 70
     0
 41
0.094
 44
0.0
 45
0.000000001
 78
    12
 79
     3
140
0.125
147
0.03125
148
0.000000001
170
     1
172
     1
173
     1
178
     0
271
     2
272
     2
274
     3
276
     2
284
    12
289
     0
340
BA
  0
ENDTAB
  0
TABLE
  2
BLOCK_RECORD
  5
1
330
0
100
AcDbSymbolTable
 70
    14
  0
BLOCK_RECORD
  5
1F
330
1
100
AcDbSymbolTableRecord
100
AcDbBlockTableRecord
  2
*Model_Space
340
22
  0
BLOCK_RECORD
  5
1B
330
1
100
AcDbSymbolTableRecord
100
AcDbBlockTableRecord
  2
*Paper_Space
340
1E
  0
BLOCK_RECORD
  5
23
330
1
100
AcDbSymbolTableRecord
100
AcDbBlockTableRecord
  2
*Paper_Space0
340
26
  0
BLOCK_RECORD
  5
C5
330
1
100
AcDbSymbolTableRecord
100
AcDbBlockTableRecord
  2
SW_NOTE_0
340
0
102
{BLKREFS
331
CD
102
}
  0
BLOCK_RECORD
  5
DC
330
1
100
AcDbSymbolTableRecord
100
AcDbBlockTableRecord
  2
_D
340
0
  0
BLOCK_RECORD
  5
EF
330
1
100
AcDbSymbolTableRecord
100
AcDbBlockTableRecord
  2
_D_1
340
0
  0
BLOCK_RECORD
  5
102
330
1
100
AcDbSymbolTableRecord
100
AcDbBlockTableRecord
  2
_D_2
340
0
  0
BLOCK_RECORD
  5
113
330
1
100
AcDbSymbolTableRecord
100
AcDbBlockTableRecord
  2
_D_3
340
0
  0
BLOCK_RECORD
  5
126
330
1
100
AcDbSymbolTableRecord
100
AcDbBlockTableRecord
  2
_D_4
340
0
  0
BLOCK_RECORD
  5
138
330
1
100
AcDbSymbolTableRecord
100
AcDbBlockTableRecord
  2
_D_5
340
0
  0
BLOCK_RECORD
  5
14A
330
1
100
AcDbSymbolTableRecord
100
AcDbBlockTableRecord
  2
_D_6
340
0
  0
BLOCK_RECORD
  5
15B
330
1
100
AcDbSymbolTableRecord
100
AcDbBlockTableRecord
  2
SW_CENTERMARKSYMBOL_0
340
0
102
{BLKREFS
331
166
102
}
  0
BLOCK_RECORD
  5
167
330
1
100
AcDbSymbolTableRecord
100
AcDbBlockTableRecord
  2
SW_CENTERMARKSYMBOL_1
340
0
102
{BLKREFS
331
172
102
}
  0
BLOCK_RECORD
  5
173
330
1
100
AcDbSymbolTableRecord
100
AcDbBlockTableRecord
  2
SW_CENTERMARKSYMBOL_2
340
0
102
{BLKREFS
331
17E
102
}
  0
BLOCK_RECORD
  5
17F
330
1
100
AcDbSymbolTableRecord
100
AcDbBlockTableRecord
  2
SW_CENTERMARKSYMBOL_3
340
0
102
{BLKREFS
331
18A
102
}
  0
BLOCK_RECORD
  5
195
330
1
100
AcDbSymbolTableRecord
100
AcDbBlockTableRecord
  2
_D_7
340
0
  0
ENDTAB
  0
ENDSEC
  0
SECTION
  2
BLOCKS
  0
BLOCK
  5
20
330
1F
100
AcDbEntity
  8
0
100
AcDbBlockBegin
  2
*Model_Space
 70
     0
 10
0.0
 20
0.0
 30
0.0
  3
*Model_Space
  1

  0
ENDBLK
  5
21
330
1F
100
AcDbEntity
  8
0
100
AcDbBlockEnd
  0
BLOCK
  5
1C
330
1B
100
AcDbEntity
 67
     1
  8
0
100
AcDbBlockBegin
  2
*Paper_Space
 70
     0
 10
0.0
 20
0.0
 30
0.0
  3
*Paper_Space
  1

  0
ENDBLK
  5
1D
330
1B
100
AcDbEntity
 67
     1
  8
0
100
AcDbBlockEnd
  0
BLOCK
  5
24
330
23
100
AcDbEntity
  8
0
100
AcDbBlockBegin
  2
*Paper_Space0
 70
     0
 10
0.0
 20
0.0
 30
0.0
  3
*Paper_Space0
  1

  0
ENDBLK
  5
25
330
23
100
AcDbEntity
  8
0
100
AcDbBlockEnd
  0
BLOCK
  5
C6
330
C5
100
AcDbEntity
  8
0
100
AcDbBlockBegin
  2
SW_NOTE_0
 70
     0
 10
0.0
 20
0.0
 30
0.0
  3
SW_NOTE_0
  1

  0
MTEXT
  5
C8
330
C5
100
AcDbEntity
  8
0
  6
Continuous
 62
     0
370
     0
100
AcDbMText
 10
0.0
 20
0.0773440644
 30
0.0
 40
0.06
 41
0.0
 71
     1
 72
     1
  1
THIS MATERIAL IS OWNED BY THE ALLIED MOULDED
  7
SLDTEXTSTYLE1
 73
     1
 44
1.0
  0
MTEXT
  5
C9
330
C5
100
AcDbEntity
  8
0
  6
Continuous
 62
     0
370
     0
100
AcDbMText
 10
0.0
 20
-0.0220260102
 30
0.0
 40
0.06
 41
0.0
 71
     1
 72
     1
  1
PRODUCTS COMPANY, IS DISCLOSED IN CONFIDENCE,
  7
SLDTEXTSTYLE1
 73
     1
 44
1.0
  0
MTEXT
  5
CA
330
C5
100
AcDbEntity
  8
0
  6
Continuous
 62
     0
370
     0
100
AcDbMText
 10
0.0
 20
-0.1213960848
 30
0.0
 40
0.06
 41
0.0
 71
     1
 72
     1
  1
AND IS NOT TO BE REPRODUCED OR DISTRIBUTED
  7
SLDTEXTSTYLE1
 73
     1
 44
1.0
  0
MTEXT
  5
CB
330
C5
100
AcDbEntity
  8
0
  6
Continuous
 62
     0
370
     0
100
AcDbMText
 10
0.0
 20
-0.2207661593
 30
0.0
 40
0.06
 41
0.0
 71
     1
 72
     1
  1
WITHOUT PRIOR WRITTEN PERMISSION FROM
  7
SLDTEXTSTYLE1
 73
     1
 44
1.0
  0
MTEXT
  5
CC
330
C5
100
AcDbEntity
  8
0
  6
Continuous
 62
     0
370
     0
100
AcDbMText
 10
0.0
 20
-0.3201362339
 30
0.0
 40
0.06
 41
0.0
 71
     1
 72
     1
  1
ALLIED MOULDED PRODUCTS.
  7
SLDTEXTSTYLE1
 73
     1
 44
1.0
  0
ENDBLK
  5
C7
330
C5
100
AcDbEntity
  8
0
100
AcDbBlockEnd
  0
BLOCK
  5
DD
330
DC
100
AcDbEntity
  8
0
100
AcDbBlockBegin
  2
_D
 70
     0
 10
0.0
 20
0.0
 30
0.0
  3
_D
  1

  0
SOLID
  5
DF
330
DC
100
AcDbEntity
  8
0
  6
Continuous
 62
     7
370
     0
100
AcDbTrace
 10
5.448785398
 20
8.9295206551
 30
0.0
 11
5.354785398
 21
8.9495206551
 31
0.0
 12
5.354785398
 22
8.9095206551
 32
0.0
 13
5.354785398
 23
8.9095206551
 33
0.0
  0
SOLID
  5
E0
330
DC
100
AcDbEntity
  8
0
  6
Continuous
 62
     7
370
     0
100
AcDbTrace
 10
2.323785398
 20
8.9295206551
 30
0.0
 11
2.417785398
 21
8.9095206551
 31
0.0
 12
2.417785398
 22
8.9495206551
 32
0.0
 13
2.417785398
 23
8.9495206551
 33
0.0
  0
LINE
  5
E1
330
DC
100
AcDbEntity
  8
0
  6
Continuous
 62
     7
370
     0
100
AcDbLine
 10
3.7791720878
 20
9.0254407937
 30
0.0
 11
3.7362033392
 21
9.0254407937
 31
0.0
  0
LINE
  5
E2
330
DC
100
AcDbEntity
  8
0
  6
Continuous
 62
     7
370
     0
100
AcDbLine
 10
3.7362033392
 20
9.0254407937
 30
0.0
 11
3.7362033392
 21
8.8336005165
 31
0.0
  0
LINE
  5
E3
330
DC
100
AcDbEntity
  8
0
  6
Continuous
 62
     7
370
     0
100
AcDbLine
 10
3.7362033392
 20
8.8336005165
 30
0.0
 11
3.7791720878
 21
8.8336005165
 31
0.0
  0
LINE
  5
E4
330
DC
100
AcDbEntity
  8
0
  6
Continuous
 62
     7
370
     0
100
AcDbLine
 10
4.2088596107
 20
9.0254407937
 30
0.0
 11
4.2518283593
 21
9.0254407937
 31
0.0
  0
LINE
  5
E5
330
DC
100
AcDbEntity
  8
0
  6
Continuous
 62
     7
370
     0
100
AcDbLine
 10
4.2518283593
 20
9.0254407937
 30
0.0
 11
4.2518283593
 21
8.8336005165
 31
0.0
  0
LINE
  5
E6
330
DC
100
AcDbEntity
  8
0
  6
Continuous
 62
     7
370
     0
100
AcDbLine
 10
4.2518283593
 20
8.8336005165
 30
0.0
 11
4.2088596107
 21
8.8336005165
 31
0.0
  0
LINE
  5
E7
330
DC
100
AcDbEntity
  8
0
  6
Continuous
 62
     7
370
     0
100
AcDbLine
 10
5.448785398
 20
7.8771584504
 30
0.0
 11
5.448785398
 21
9.0545206551
 31
0.0
  0
LINE
  5
E8
330
DC
100
AcDbEntity
  8
0
  6
Continuous
 62
     7
370
     0
100
AcDbLine
 10
2.323785398
 20
7.8771584504
 30
0.0
 11
2.323785398
 21
9.0545206551
 31
0.0
  0
LINE
  5
E9
330
DC
100
AcDbEntity
  8
0
  6
Continuous
 62
     7
370
     0
100
AcDbLine
 10
5.448785398
 20
8.9295206551
 30
0.0
 11
4.3233973449
 21
8.9295206551
 31
0.0
  0
LINE
  5
EA
330
DC
100
AcDbEntity
  8
0
  6
Continuous
 62
     7
370
     0
100
AcDbLine
 10
2.323785398
 20
8.9295206551
 30
0.0
 11
3.3304329144
 21
8.9295206551
 31
0.0
  0
MTEXT
  5
EB
330
DC
100
AcDbEntity
  8
0
  6
Continuous
 62
     7
370
     0
100
AcDbMText
 10
3.359033188
 20
8.9947339886
 30
0.0
 40
0.125
 41
0.0
 71
     1
 72
     1
  1
3.13
  7
SLDTEXTSTYLE0
 73
     1
 44
1.0
  0
MTEXT
  5
EC
330
DC
100
AcDbEntity
  8
0
  6
Continuous
 62
     7
370
     0
100
AcDbMText
 10
3.7791720878
 20
8.9947339886
 30
0.0
 40
0.125
 41
0.0
 71
     1
 72
     1
  1
79.38
  7
SLDTEXTSTYLE0
 73
     1
 44
1.0
  0
ENDBLK
  5
DE
330
DC
100
AcDbEntity
  8
0
100
AcDbBlockEnd
  0
BLOCK
  5
F0
330
EF
100
AcDbEntity
  8
0
100
AcDbBlockBegin
  2
_D_1
 70
     0
 10
0.0
 20
0.0
 30
0.0
  3
_D_1
  1

  0
SOLID
  5
F2
330
EF
100
AcDbEntity
  8
0
  6
Continuous
 62
     7
370
     0
100
AcDbTrace
 10
6.7873680752
 20
3.8271584504
 30
0.0
 11
6.8073680752
 21
3.9211584504
 31
0.0
 12
6.7673680752
 22
3.9211584504
 32
0.0
 13
6.7673680752
 23
3.9211584504
 33
0.0
  0
SOLID
  5
F3
330
EF
100
AcDbEntity
  8
0
  6
Continuous
 62
     7
370
     0
100
AcDbTrace
 10
6.7873680752
 20
7.8271584504
 30
0.0
 11
6.7673680752
 21
7.7331584504
 31
0.0
 12
6.8073680752
 22
7.7331584504
 32
0.0
 13
6.8073680752
 23
7.7331584504
 33
0.0
  0
LINE
  5
F4
330
EF
100
AcDbEntity
  8
0
  6
Continuous
 62
     7
370
     0
100
AcDbLine
 10
6.6918819916
 20
5.7164222578
 30
0.0
 11
6.648913243
 21
5.7164222578
 31
0.0
  0
LINE
  5
F5
330
EF
100
AcDbEntity
  8
0
  6
Continuous
 62
     7
370
     0
100
AcDbLine
 10
6.648913243
 20
5.7164222578
 30
0.0
 11
6.648913243
 21
5.5245819807
 31
0.0
  0
LINE
  5
F6
330
EF
100
AcDbEntity
  8
0
  6
Continuous
 62
     7
370
     0
100
AcDbLine
 10
6.648913243
 20
5.5245819807
 30
0.0
 11
6.6918819916
 21
5.5245819807
 31
0.0
  0
LINE
  5
F7
330
EF
100
AcDbEntity
  8
0
  6
Continuous
 62
     7
370
     0
100
AcDbLine
 10
7.2170555981
 20
5.7164222578
 30
0.0
 11
7.2600243467
 21
5.7164222578
 31
0.0
  0
LINE
  5
F8
330
EF
100
AcDbEntity
  8
0
  6
Continuous
 62
     7
370
     0
100
AcDbLine
 10
7.2600243467
 20
5.7164222578
 30
0.0
 11
7.2600243467
 21
5.5245819807
 31
0.0
  0
LINE
  5
F9
330
EF
100
AcDbEntity
  8
0
  6
Continuous
 62
     7
370
     0
100
AcDbLine
 10
7.2600243467
 20
5.5245819807
 30
0.0
 11
7.2170555981
 21
5.5245819807
 31
0.0
  0
LINE
  5
FA
330
EF
100
AcDbEntity
  8
0
  6
Continuous
 62
     7
370
     0
100
AcDbLine
 10
5.498785398
 20
3.8271584504
 30
0.0
 11
6.9123680752
 21
3.8271584504
 31
0.0
  0
LINE
  5
FB
330
EF
100
AcDbEntity
  8
0
  6
Continuous
 62
     7
370
     0
100
AcDbLine
 10
5.498785398
 20
7.8271584504
 30
0.0
 11
6.9123680752
 21
7.8271584504
 31
0.0
  0
LINE
  5
FC
330
EF
100
AcDbEntity
  8
0
  6
Continuous
 62
     7
370
     0
100
AcDbLine
 10
6.7873680752
 20
3.8271584504
 30
0.0
 11
6.7873680752
 21
5.4959361482
 31
0.0
  0
LINE
  5
FD
330
EF
100
AcDbEntity
  8
0
  6
Continuous
 62
     7
370
     0
100
AcDbLine
 10
6.7873680752
 20
7.8271584504
 30
0.0
 11
6.7873680752
 21
5.7450680902
 31
0.0
  0
MTEXT
  5
FE
330
EF
100
AcDbEntity
  8
0
  6
Continuous
 62
     7
370
     0
100
AcDbMText
 10
6.2717430918
 20
5.6857154527
 30
0.0
 40
0.125
 41
0.0
 71
     1
 72
     1
  1
4.00
  7
SLDTEXTSTYLE0
 73
     1
 44
1.0
  0
MTEXT
  5
FF
330
EF
100
AcDbEntity
  8
0
  6
Continuous
 62
     7
370
     0
100
AcDbMText
 10
6.6918819916
 20
5.6857154527
 30
0.0
 40
0.125
 41
0.0
 71
     1
 72
     1
  1
101.60
  7
SLDTEXTSTYLE0
 73
     1
 44
1.0
  0
ENDBLK
  5
F1
330
EF
100
AcDbEntity
  8
0
100
AcDbBlockEnd
  0
BLOCK
  5
103
330
102
100
AcDbEntity
  8
0
100
AcDbBlockBegin
  2
_D_2
 70
     0
 10
0.0
 20
0.0
 30
0.0
  3
_D_2
  1

  0
SOLID
  5
105
330
102
100
AcDbEntity
  8
0
  6
Continuous
 62
     7
370
     0
100
AcDbTrace
 10
2.6153244919
 20
3.9443839314
 30
0.0
 11
2.6326564593
 21
3.8498556134
 31
0.0
 12
2.6696379342
 22
3.8650993176
 32
0.0
 13
2.6696379342
 23
3.8650993176
 33
0.0
  0
LINE
  5
106
330
102
100
AcDbEntity
  8
0
  6
Continuous
 62
     7
370
     0
100
AcDbLine
 10
3.4916720336
 20
3.4472728256
 30
0.0
 11
3.4487032849
 21
3.4472728256
 31
0.0
  0
LINE
  5
107
330
102
100
AcDbEntity
  8
0
  6
Continuous
 62
     7
370
     0
100
AcDbLine
 10
3.4487032849
 20
3.4472728256
 30
0.0
 11
3.4487032849
 21
3.2554325484
 31
0.0
  0
LINE
  5
108
330
102
100
AcDbEntity
  8
0
  6
Continuous
 62
     7
370
     0
100
AcDbLine
 10
3.4487032849
 20
3.2554325484
 30
0.0
 11
3.4916720336
 21
3.2554325484
 31
0.0
  0
LINE
  5
109
330
102
100
AcDbEntity
  8
0
  6
Continuous
 62
     7
370
     0
100
AcDbLine
 10
3.8258734362
 20
3.4472728256
 30
0.0
 11
3.8688421848
 21
3.4472728256
 31
0.0
  0
LINE
  5
10A
330
102
100
AcDbEntity
  8
0
  6
Continuous
 62
     7
370
     0
100
AcDbLine
 10
3.8688421848
 20
3.4472728256
 30
0.0
 11
3.8688421848
 21
3.2554325484
 31
0.0
  0
LINE
  5
10B
330
102
100
AcDbEntity
  8
0
  6
Continuous
 62
     7
370
     0
100
AcDbLine
 10
3.8688421848
 20
3.2554325484
 30
0.0
 11
3.8258734362
 21
3.2554325484
 31
0.0
  0
LINE
  5
10C
330
102
100
AcDbEntity
  8
0
  6
Continuous
 62
     7
370
     0
100
AcDbLine
 10
2.6153244919
 20
3.9443839314
 30
0.0
 11
2.8597710127
 21
3.351352687
 31
0.0
  0
LINE
  5
10D
330
102
100
AcDbEntity
  8
0
  6
Continuous
 62
     7
370
     0
100
AcDbLine
 10
2.8597710127
 20
3.351352687
 30
0.0
 11
2.9847710127
 21
3.351352687
 31
0.0
  0
MTEXT
  5
10E
330
102
100
AcDbEntity
  8
0
  6
Continuous
 62
     7
370
     0
100
AcDbMText
 10
2.9847710127
 20
3.416218798
 30
0.0
 40
0.125
 41
0.0
 71
     1
 72
     1
  1
%%c
  7
SLDTEXTSTYLE0
 73
     1
 44
1.0
  0
MTEXT
  5
10F
330
102
100
AcDbEntity
  8
0
  6
Continuous
 62
     7
370
     0
100
AcDbMText
 10
3.1670192723
 20
3.4165660204
 30
0.0
 40
0.125
 41
0.0
 71
     1
 72
     1
  1
.22
  7
SLDTEXTSTYLE0
 73
     1
 44
1.0
  0
MTEXT
  5
110
330
102
100
AcDbEntity
  8
0
  6
Continuous
 62
     7
370
     0
100
AcDbMText
 10
3.4916720336
 20
3.4165660204
 30
0.0
 40
0.125
 41
0.0
 71
     1
 72
     1
  1
5.54
  7
SLDTEXTSTYLE0
 73
     1
 44
1.0
  0
MTEXT
  5
111
330
102
100
AcDbEntity
  8
0
  6
Continuous
 62
     7
370
     0
100
AcDbMText
 10
3.9586859701
 20
3.4165660204
 30
0.0
 40
0.125
 41
0.0
 71
     1
 72
     1
  1
4x
  7
SLDTEXTSTYLE0
 73
     1
 44
1.0
  0
ENDBLK
  5
104
330
102
100
AcDbEntity
  8
0
100
AcDbBlockEnd
  0
BLOCK
  5
114
330
113
100
AcDbEntity
  8
0
100
AcDbBlockBegin
  2
_D_3
 70
     0
 10
0.0
 20
0.0
 30
0.0
  3
_D_3
  1

  0
SOLID
  5
116
330
113
100
AcDbEntity
  8
0
  6
Continuous
 62
     7
370
     0
100
AcDbTrace
 10
1.6888641382
 20
7.6091584504
 30
0.0
 11
1.7088641382
 21
7.7031584504
 31
0.0
 12
1.6688641382
 22
7.7031584504
 32
0.0
 13
1.6688641382
 23
7.7031584504
 33
0.0
  0
SOLID
  5
117
330
113
100
AcDbEntity
  8
0
  6
Continuous
 62
     7
370
     0
100
AcDbTrace
 10
1.6888641382
 20
7.8271584504
 30
0.0
 11
1.6688641382
 21
7.7331584504
 31
0.0
 12
1.7088641382
 22
7.7331584504
 32
0.0
 13
1.7088641382
 23
7.7331584504
 33
0.0
  0
LINE
  5
118
330
113
100
AcDbEntity
  8
0
  6
Continuous
 62
     7
370
     0
100
AcDbLine
 10
1.1151249281
 20
7.0559370094
 30
0.0
 11
1.0721561795
 21
7.0559370094
 31
0.0
  0
LINE
  5
119
330
113
100
AcDbEntity
  8
0
  6
Continuous
 62
     7
370
     0
100
AcDbLine
 10
1.0721561795
 20
7.0559370094
 30
0.0
 11
1.0721561795
 21
6.8640967323
 31
0.0
  0
LINE
  5
11A
330
113
100
AcDbEntity
  8
0
  6
Continuous
 62
     7
370
     0
100
AcDbLine
 10
1.0721561795
 20
6.8640967323
 30
0.0
 11
1.1151249281
 21
6.8640967323
 31
0.0
  0
LINE
  5
11B
330
113
100
AcDbEntity
  8
0
  6
Continuous
 62
     7
370
     0
100
AcDbLine
 10
1.4493263307
 20
7.0559370094
 30
0.0
 11
1.4922950793
 21
7.0559370094
 31
0.0
  0
LINE
  5
11C
330
113
100
AcDbEntity
  8
0
  6
Continuous
 62
     7
370
     0
100
AcDbLine
 10
1.4922950793
 20
7.0559370094
 30
0.0
 11
1.4922950793
 21
6.8640967323
 31
0.0
  0
LINE
  5
11D
330
113
100
AcDbEntity
  8
0
  6
Continuous
 62
     7
370
     0
100
AcDbLine
 10
1.4922950793
 20
6.8640967323
 30
0.0
 11
1.4493263307
 21
6.8640967323
 31
0.0
  0
LINE
  5
11E
330
113
100
AcDbEntity
  8
0
  6
Continuous
 62
     7
370
     0
100
AcDbLine
 10
2.314785398
 20
7.6091584504
 30
0.0
 11
1.5638641382
 21
7.6091584504
 31
0.0
  0
LINE
  5
11F
330
113
100
AcDbEntity
  8
0
  6
Continuous
 62
     7
370
     0
100
AcDbLine
 10
2.273785398
 20
7.8271584504
 30
0.0
 11
1.5638641382
 21
7.8271584504
 31
0.0
  0
LINE
  5
120
330
113
100
AcDbEntity
  8
0
  6
Continuous
 62
     7
370
     0
100
AcDbLine
 10
1.5638641382
 20
6.9600168708
 30
0.0
 11
1.6888641382
 21
6.9600168708
 31
0.0
  0
LINE
  5
121
330
113
100
AcDbEntity
  8
0
  6
Continuous
 62
     7
370
     0
100
AcDbLine
 10
1.6888641382
 20
6.9600168708
 30
0.0
 11
1.6888641382
 21
7.6091584504
 31
0.0
  0
LINE
  5
122
330
113
100
AcDbEntity
  8
0
  6
Continuous
 62
     7
370
     0
100
AcDbLine
 10
1.6888641382
 20
7.6091584504
 30
0.0
 11
1.6888641382
 21
7.8271584504
 31
0.0
  0
MTEXT
  5
123
330
113
100
AcDbEntity
  8
0
  6
Continuous
 62
     7
370
     0
100
AcDbMText
 10
0.7904721485
 20
7.0252302043
 30
0.0
 40
0.125
 41
0.0
 71
     1
 72
     1
  1
.22
  7
SLDTEXTSTYLE0
 73
     1
 44
1.0
  0
MTEXT
  5
124
330
113
100
AcDbEntity
  8
0
  6
Continuous
 62
     7
370
     0
100
AcDbMText
 10
1.1151249281
 20
7.0252302043
 30
0.0
 40
0.125
 41
0.0
 71
     1
 72
     1
  1
5.54
  7
SLDTEXTSTYLE0
 73
     1
 44
1.0
  0
ENDBLK
  5
115
330
113
100
AcDbEntity
  8
0
100
AcDbBlockEnd
  0
BLOCK
  5
127
330
126
100
AcDbEntity
  8
0
100
AcDbBlockBegin
  2
_D_4
 70
     0
 10
0.0
 20
0.0
 30
0.0
  3
_D_4
  1

  0
SOLID
  5
129
330
126
100
AcDbEntity
  8
0
  6
Continuous
 62
     7
370
     0
100
AcDbTrace
 10
2.573785398
 20
8.2208592378
 30
0.0
 11
2.479785398
 21
8.2408592378
 31
0.0
 12
2.479785398
 22
8.2008592378
 32
0.0
 13
2.479785398
 23
8.2008592378
 33
0.0
  0
SOLID
  5
12A
330
126
100
AcDbEntity
  8
0
  6
Continuous
 62
     7
370
     0
100
AcDbTrace
 10
2.323785398
 20
8.2208592378
 30
0.0
 11
2.417785398
 21
8.2008592378
 31
0.0
 12
2.417785398
 22
8.2408592378
 32
0.0
 13
2.417785398
 23
8.2408592378
 33
0.0
  0
LINE
  5
12B
330
126
100
AcDbEntity
  8
0
  6
Continuous
 62
     7
370
     0
100
AcDbLine
 10
1.1238377722
 20
8.3167793764
 30
0.0
 11
1.0808690236
 21
8.3167793764
 31
0.0
  0
LINE
  5
12C
330
126
100
AcDbEntity
  8
0
  6
Continuous
 62
     7
370
     0
100
AcDbLine
 10
1.0808690236
 20
8.3167793764
 30
0.0
 11
1.0808690236
 21
8.1249390992
 31
0.0
  0
LINE
  5
12D
330
126
100
AcDbEntity
  8
0
  6
Continuous
 62
     7
370
     0
100
AcDbLine
 10
1.0808690236
 20
8.1249390992
 30
0.0
 11
1.1238377722
 21
8.1249390992
 31
0.0
  0
LINE
  5
12E
330
126
100
AcDbEntity
  8
0
  6
Continuous
 62
     7
370
     0
100
AcDbLine
 10
1.4580391748
 20
8.3167793764
 30
0.0
 11
1.5010079234
 21
8.3167793764
 31
0.0
  0
LINE
  5
12F
330
126
100
AcDbEntity
  8
0
  6
Continuous
 62
     7
370
     0
100
AcDbLine
 10
1.5010079234
 20
8.3167793764
 30
0.0
 11
1.5010079234
 21
8.1249390992
 31
0.0
  0
LINE
  5
130
330
126
100
AcDbEntity
  8
0
  6
Continuous
 62
     7
370
     0
100
AcDbLine
 10
1.5010079234
 20
8.1249390992
 30
0.0
 11
1.4580391748
 21
8.1249390992
 31
0.0
  0
LINE
  5
131
330
126
100
AcDbEntity
  8
0
  6
Continuous
 62
     7
370
     0
100
AcDbLine
 10
2.573785398
 20
7.8681584504
 30
0.0
 11
2.573785398
 21
8.3458592378
 31
0.0
  0
LINE
  5
132
330
126
100
AcDbEntity
  8
0
  6
Continuous
 62
     7
370
     0
100
AcDbLine
 10
2.323785398
 20
7.8771584504
 30
0.0
 11
2.323785398
 21
8.3458592378
 31
0.0
  0
LINE
  5
133
330
126
100
AcDbEntity
  8
0
  6
Continuous
 62
     7
370
     0
100
AcDbLine
 10
2.573785398
 20
8.2208592378
 30
0.0
 11
2.323785398
 21
8.2208592378
 31
0.0
  0
LINE
  5
134
330
126
100
AcDbEntity
  8
0
  6
Continuous
 62
     7
370
     0
100
AcDbLine
 10
2.323785398
 20
8.2208592378
 30
0.0
 11
1.5725769823
 21
8.2208592378
 31
0.0
  0
MTEXT
  5
135
330
126
100
AcDbEntity
  8
0
  6
Continuous
 62
     7
370
     0
100
AcDbMText
 10
0.7991849926
 20
8.2860725713
 30
0.0
 40
0.125
 41
0.0
 71
     1
 72
     1
  1
.25
  7
SLDTEXTSTYLE0
 73
     1
 44
1.0
  0
MTEXT
  5
136
330
126
100
AcDbEntity
  8
0
  6
Continuous
 62
     7
370
     0
100
AcDbMText
 10
1.1238377722
 20
8.2860725713
 30
0.0
 40
0.125
 41
0.0
 71
     1
 72
     1
  1
6.35
  7
SLDTEXTSTYLE0
 73
     1
 44
1.0
  0
ENDBLK
  5
128
330
126
100
AcDbEntity
  8
0
100
AcDbBlockEnd
  0
BLOCK
  5
139
330
138
100
AcDbEntity
  8
0
100
AcDbBlockBegin
  2
_D_5
 70
     0
 10
0.0
 20
0.0
 30
0.0
  3
_D_5
  1

  0
SOLID
  5
13B
330
138
100
AcDbEntity
  8
0
  6
Continuous
 62
     7
370
     0
100
AcDbTrace
 10
2.573785398
 20
8.405132643
 30
0.0
 11
2.667785398
 21
8.385132643
 31
0.0
 12
2.667785398
 22
8.425132643
 32
0.0
 13
2.667785398
 23
8.425132643
 33
0.0
  0
SOLID
  5
13C
330
138
100
AcDbEntity
  8
0
  6
Continuous
 62
     7
370
     0
100
AcDbTrace
 10
5.198785398
 20
8.405132643
 30
0.0
 11
5.104785398
 21
8.425132643
 31
0.0
 12
5.104785398
 22
8.385132643
 32
0.0
 13
5.104785398
 23
8.385132643
 33
0.0
  0
LINE
  5
13D
330
138
100
AcDbEntity
  8
0
  6
Continuous
 62
     7
370
     0
100
AcDbLine
 10
3.7816720878
 20
8.5010527816
 30
0.0
 11
3.7387033392
 21
8.5010527816
 31
0.0
  0
LINE
  5
13E
330
138
100
AcDbEntity
  8
0
  6
Continuous
 62
     7
370
     0
100
AcDbLine
 10
3.7387033392
 20
8.5010527816
 30
0.0
 11
3.7387033392
 21
8.3092125044
 31
0.0
  0
LINE
  5
13F
330
138
100
AcDbEntity
  8
0
  6
Continuous
 62
     7
370
     0
100
AcDbLine
 10
3.7387033392
 20
8.3092125044
 30
0.0
 11
3.7816720878
 21
8.3092125044
 31
0.0
  0
LINE
  5
140
330
138
100
AcDbEntity
  8
0
  6
Continuous
 62
     7
370
     0
100
AcDbLine
 10
4.2113596107
 20
8.5010527816
 30
0.0
 11
4.2543283593
 21
8.5010527816
 31
0.0
  0
LINE
  5
141
330
138
100
AcDbEntity
  8
0
  6
Continuous
 62
     7
370
     0
100
AcDbLine
 10
4.2543283593
 20
8.5010527816
 30
0.0
 11
4.2543283593
 21
8.3092125044
 31
0.0
  0
LINE
  5
142
330
138
100
AcDbEntity
  8
0
  6
Continuous
 62
     7
370
     0
100
AcDbLine
 10
4.2543283593
 20
8.3092125044
 30
0.0
 11
4.2113596107
 21
8.3092125044
 31
0.0
  0
LINE
  5
143
330
138
100
AcDbEntity
  8
0
  6
Continuous
 62
     7
370
     0
100
AcDbLine
 10
2.573785398
 20
7.8681584504
 30
0.0
 11
2.573785398
 21
8.530132643
 31
0.0
  0
LINE
  5
144
330
138
100
AcDbEntity
  8
0
  6
Continuous
 62
     7
370
     0
100
AcDbLine
 10
5.198785398
 20
7.8681584504
 30
0.0
 11
5.198785398
 21
8.530132643
 31
0.0
  0
LINE
  5
145
330
138
100
AcDbEntity
  8
0
  6
Continuous
 62
     7
370
     0
100
AcDbLine
 10
2.573785398
 20
8.405132643
 30
0.0
 11
3.3329329144
 21
8.405132643
 31
0.0
  0
LINE
  5
146
330
138
100
AcDbEntity
  8
0
  6
Continuous
 62
     7
370
     0
100
AcDbLine
 10
5.198785398
 20
8.405132643
 30
0.0
 11
4.3258973449
 21
8.405132643
 31
0.0
  0
MTEXT
  5
147
330
138
100
AcDbEntity
  8
0
  6
Continuous
 62
     7
370
     0
100
AcDbMText
 10
3.361533188
 20
8.4703459765
 30
0.0
 40
0.125
 41
0.0
 71
     1
 72
     1
  1
2.63
  7
SLDTEXTSTYLE0
 73
     1
 44
1.0
  0
MTEXT
  5
148
330
138
100
AcDbEntity
  8
0
  6
Continuous
 62
     7
370
     0
100
AcDbMText
 10
3.7816720878
 20
8.4703459765
 30
0.0
 40
0.125
 41
0.0
 71
     1
 72
     1
  1
66.68
  7
SLDTEXTSTYLE0
 73
     1
 44
1.0
  0
ENDBLK
  5
13A
330
138
100
AcDbEntity
  8
0
100
AcDbBlockEnd
  0
BLOCK
  5
14B
330
14A
100
AcDbEntity
  8
0
100
AcDbBlockBegin
  2
_D_6
 70
     0
 10
0.0
 20
0.0
 30
0.0
  3
_D_6
  1

  0
SOLID
  5
14D
330
14A
100
AcDbEntity
  8
0
  6
Continuous
 62
     7
370
     0
100
AcDbTrace
 10
6.2137829024
 20
4.0451584504
 30
0.0
 11
6.2337829024
 21
4.1391584504
 31
0.0
 12
6.1937829024
 22
4.1391584504
 32
0.0
 13
6.1937829024
 23
4.1391584504
 33
0.0
  0
SOLID
  5
14E
330
14A
100
AcDbEntity
  8
0
  6
Continuous
 62
     7
370
     0
100
AcDbTrace
 10
6.2137829024
 20
7.6091584504
 30
0.0
 11
6.1937829024
 21
7.5151584504
 31
0.0
 12
6.2337829024
 22
7.5151584504
 32
0.0
 13
6.2337829024
 23
7.5151584504
 33
0.0
  0
LINE
  5
14F
330
14A
100
AcDbEntity
  8
0
  6
Continuous
 62
     7
370
     0
100
AcDbLine
 10
6.1660398606
 20
6.1774647177
 30
0.0
 11
6.123071112
 21
6.1774647177
 31
0.0
  0
LINE
  5
150
330
14A
100
AcDbEntity
  8
0
  6
Continuous
 62
     7
370
     0
100
AcDbLine
 10
6.123071112
 20
6.1774647177
 30
0.0
 11
6.123071112
 21
5.9856244405
 31
0.0
  0
LINE
  5
151
330
14A
100
AcDbEntity
  8
0
  6
Continuous
 62
     7
370
     0
100
AcDbLine
 10
6.123071112
 20
5.9856244405
 30
0.0
 11
6.1660398606
 21
5.9856244405
 31
0.0
  0
LINE
  5
152
330
14A
100
AcDbEntity
  8
0
  6
Continuous
 62
     7
370
     0
100
AcDbLine
 10
6.5957273835
 20
6.1774647177
 30
0.0
 11
6.6386961321
 21
6.1774647177
 31
0.0
  0
LINE
  5
153
330
14A
100
AcDbEntity
  8
0
  6
Continuous
 62
     7
370
     0
100
AcDbLine
 10
6.6386961321
 20
6.1774647177
 30
0.0
 11
6.6386961321
 21
5.9856244405
 31
0.0
  0
LINE
  5
154
330
14A
100
AcDbEntity
  8
0
  6
Continuous
 62
     7
370
     0
100
AcDbLine
 10
6.6386961321
 20
5.9856244405
 30
0.0
 11
6.5957273835
 21
5.9856244405
 31
0.0
  0
LINE
  5
155
330
14A
100
AcDbEntity
  8
0
  6
Continuous
 62
     7
370
     0
100
AcDbLine
 10
5.457785398
 20
4.0451584504
 30
0.0
 11
6.3387829024
 21
4.0451584504
 31
0.0
  0
LINE
  5
156
330
14A
100
AcDbEntity
  8
0
  6
Continuous
 62
     7
370
     0
100
AcDbLine
 10
5.457785398
 20
7.6091584504
 30
0.0
 11
6.3387829024
 21
7.6091584504
 31
0.0
  0
LINE
  5
157
330
14A
100
AcDbEntity
  8
0
  6
Continuous
 62
     7
370
     0
100
AcDbLine
 10
6.2137829024
 20
4.0451584504
 30
0.0
 11
6.2137829024
 21
5.9569786081
 31
0.0
  0
LINE
  5
158
330
14A
100
AcDbEntity
  8
0
  6
Continuous
 62
     7
370
     0
100
AcDbLine
 10
6.2137829024
 20
7.6091584504
 30
0.0
 11
6.2137829024
 21
6.2061105501
 31
0.0
  0
MTEXT
  5
159
330
14A
100
AcDbEntity
  8
0
  6
Continuous
 62
     7
370
     0
100
AcDbMText
 10
5.7459009607
 20
6.1467579126
 30
0.0
 40
0.125
 41
0.0
 71
     1
 72
     1
  1
3.56
  7
SLDTEXTSTYLE0
 73
     1
 44
1.0
  0
MTEXT
  5
15A
330
14A
100
AcDbEntity
  8
0
  6
Continuous
 62
     7
370
     0
100
AcDbMText
 10
6.1660398606
 20
6.1467579126
 30
0.0
 40
0.125
 41
0.0
 71
     1
 72
     1
  1
90.53
  7
SLDTEXTSTYLE0
 73
     1
 44
1.0
  0
ENDBLK
  5
14C
330
14A
100
AcDbEntity
  8
0
100
AcDbBlockEnd
  0
BLOCK
  5
15C
330
15B
100
AcDbEntity
  8
0
100
AcDbBlockBegin
  2
SW_CENTERMARKSYMBOL_0
 70
     0
 10
0.0
 20
0.0
 30
0.0
  3
SW_CENTERMARKSYMBOL_0
  1

  0
LINE
  5
15E
330
15B
100
AcDbEntity
  8
0
  6
Continuous
 62
     0
370
     0
100
AcDbLine
 10
0.0
 20
0.0
 30
0.0
 11
0.0
 21
0.1
 31
0.0
  0
LINE
  5
15F
330
15B
100
AcDbEntity
  8
0
  6
Continuous
 62
     0
370
     0
100
AcDbLine
 10
0.0
 20
0.0
 30
0.0
 11
-0.1
 21
0.0
 31
0.0
  0
LINE
  5
160
330
15B
100
AcDbEntity
  8
0
  6
Continuous
 62
     0
370
     0
100
AcDbLine
 10
0.0
 20
0.0
 30
0.0
 11
0.0
 21
-0.1
 31
0.0
  0
LINE
  5
161
330
15B
100
AcDbEntity
  8
0
  6
Continuous
 62
     0
370
     0
100
AcDbLine
 10
0.0
 20
0.0
 30
0.0
 11
0.1
 21
0.0
 31
0.0
  0
LINE
  5
162
330
15B
100
AcDbEntity
  8
0
  6
Continuous
 62
     0
370
     0
100
AcDbLine
 10
0.0
 20
0.2
 30
0.0
 11
0.0
 21
0.209
 31
0.0
  0
LINE
  5
163
330
15B
100
AcDbEntity
  8
0
  6
Continuous
 62
     0
370
     0
100
AcDbLine
 10
-0.2
 20
0.0
 30
0.0
 11
-0.209
 21
0.0
 31
0.0
  0
LINE
  5
164
330
15B
100
AcDbEntity
  8
0
  6
Continuous
 62
     0
370
     0
100
AcDbLine
 10
0.0
 20
-0.2
 30
0.0
 11
0.0
 21
-0.209
 31
0.0
  0
LINE
  5
165
330
15B
100
AcDbEntity
  8
0
  6
Continuous
 62
     0
370
     0
100
AcDbLine
 10
0.2
 20
0.0
 30
0.0
 11
0.209
 21
0.0
 31
0.0
  0
ENDBLK
  5
15D
330
15B
100
AcDbEntity
  8
0
100
AcDbBlockEnd
  0
BLOCK
  5
168
330
167
100
AcDbEntity
  8
0
100
AcDbBlockBegin
  2
SW_CENTERMARKSYMBOL_1
 70
     0
 10
0.0
 20
0.0
 30
0.0
  3
SW_CENTERMARKSYMBOL_1
  1

  0
LINE
  5
16A
330
167
100
AcDbEntity
  8
0
  6
Continuous
 62
     0
370
     0
100
AcDbLine
 10
0.0
 20
0.0
 30
0.0
 11
0.0
 21
0.1
 31
0.0
  0
LINE
  5
16B
330
167
100
AcDbEntity
  8
0
  6
Continuous
 62
     0
370
     0
100
AcDbLine
 10
0.0
 20
0.0
 30
0.0
 11
-0.1
 21
0.0
 31
0.0
  0
LINE
  5
16C
330
167
100
AcDbEntity
  8
0
  6
Continuous
 62
     0
370
     0
100
AcDbLine
 10
0.0
 20
0.0
 30
0.0
 11
0.0
 21
-0.1
 31
0.0
  0
LINE
  5
16D
330
167
100
AcDbEntity
  8
0
  6
Continuous
 62
     0
370
     0
100
AcDbLine
 10
0.0
 20
0.0
 30
0.0
 11
0.1
 21
0.0
 31
0.0
  0
LINE
  5
16E
330
167
100
AcDbEntity
  8
0
  6
Continuous
 62
     0
370
     0
100
AcDbLine
 10
0.0
 20
0.2
 30
0.0
 11
0.0
 21
0.209
 31
0.0
  0
LINE
  5
16F
330
167
100
AcDbEntity
  8
0
  6
Continuous
 62
     0
370
     0
100
AcDbLine
 10
-0.2
 20
0.0
 30
0.0
 11
-0.209
 21
0.0
 31
0.0
  0
LINE
  5
170
330
167
100
AcDbEntity
  8
0
  6
Continuous
 62
     0
370
     0
100
AcDbLine
 10
0.0
 20
-0.2
 30
0.0
 11
0.0
 21
-0.209
 31
0.0
  0
LINE
  5
171
330
167
100
AcDbEntity
  8
0
  6
Continuous
 62
     0
370
     0
100
AcDbLine
 10
0.2
 20
0.0
 30
0.0
 11
0.209
 21
0.0
 31
0.0
  0
ENDBLK
  5
169
330
167
100
AcDbEntity
  8
0
100
AcDbBlockEnd
  0
BLOCK
  5
174
330
173
100
AcDbEntity
  8
0
100
AcDbBlockBegin
  2
SW_CENTERMARKSYMBOL_2
 70
     0
 10
0.0
 20
0.0
 30
0.0
  3
SW_CENTERMARKSYMBOL_2
  1

  0
LINE
  5
176
330
173
100
AcDbEntity
  8
0
  6
Continuous
 62
     0
370
     0
100
AcDbLine
 10
0.0
 20
0.0
 30
0.0
 11
0.0
 21
0.1
 31
0.0
  0
LINE
  5
177
330
173
100
AcDbEntity
  8
0
  6
Continuous
 62
     0
370
     0
100
AcDbLine
 10
0.0
 20
0.0
 30
0.0
 11
-0.1
 21
0.0
 31
0.0
  0
LINE
  5
178
330
173
100
AcDbEntity
  8
0
  6
Continuous
 62
     0
370
     0
100
AcDbLine
 10
0.0
 20
0.0
 30
0.0
 11
0.0
 21
-0.1
 31
0.0
  0
LINE
  5
179
330
173
100
AcDbEntity
  8
0
  6
Continuous
 62
     0
370
     0
100
AcDbLine
 10
0.0
 20
0.0
 30
0.0
 11
0.1
 21
0.0
 31
0.0
  0
LINE
  5
17A
330
173
100
AcDbEntity
  8
0
  6
Continuous
 62
     0
370
     0
100
AcDbLine
 10
0.0
 20
0.2
 30
0.0
 11
0.0
 21
0.209
 31
0.0
  0
LINE
  5
17B
330
173
100
AcDbEntity
  8
0
  6
Continuous
 62
     0
370
     0
100
AcDbLine
 10
-0.2
 20
0.0
 30
0.0
 11
-0.209
 21
0.0
 31
0.0
  0
LINE
  5
17C
330
173
100
AcDbEntity
  8
0
  6
Continuous
 62
     0
370
     0
100
AcDbLine
 10
0.0
 20
-0.2
 30
0.0
 11
0.0
 21
-0.209
 31
0.0
  0
LINE
  5
17D
330
173
100
AcDbEntity
  8
0
  6
Continuous
 62
     0
370
     0
100
AcDbLine
 10
0.2
 20
0.0
 30
0.0
 11
0.209
 21
0.0
 31
0.0
  0
ENDBLK
  5
175
330
173
100
AcDbEntity
  8
0
100
AcDbBlockEnd
  0
BLOCK
  5
180
330
17F
100
AcDbEntity
  8
0
100
AcDbBlockBegin
  2
SW_CENTERMARKSYMBOL_3
 70
     0
 10
0.0
 20
0.0
 30
0.0
  3
SW_CENTERMARKSYMBOL_3
  1

  0
LINE
  5
182
330
17F
100
AcDbEntity
  8
0
  6
Continuous
 62
     0
370
     0
100
AcDbLine
 10
0.0
 20
0.0
 30
0.0
 11
0.0
 21
0.1
 31
0.0
  0
LINE
  5
183
330
17F
100
AcDbEntity
  8
0
  6
Continuous
 62
     0
370
     0
100
AcDbLine
 10
0.0
 20
0.0
 30
0.0
 11
-0.1
 21
0.0
 31
0.0
  0
LINE
  5
184
330
17F
100
AcDbEntity
  8
0
  6
Continuous
 62
     0
370
     0
100
AcDbLine
 10
0.0
 20
0.0
 30
0.0
 11
0.0
 21
-0.1
 31
0.0
  0
LINE
  5
185
330
17F
100
AcDbEntity
  8
0
  6
Continuous
 62
     0
370
     0
100
AcDbLine
 10
0.0
 20
0.0
 30
0.0
 11
0.1
 21
0.0
 31
0.0
  0
LINE
  5
186
330
17F
100
AcDbEntity
  8
0
  6
Continuous
 62
     0
370
     0
100
AcDbLine
 10
0.0
 20
0.2
 30
0.0
 11
0.0
 21
0.209
 31
0.0
  0
LINE
  5
187
330
17F
100
AcDbEntity
  8
0
  6
Continuous
 62
     0
370
     0
100
AcDbLine
 10
-0.2
 20
0.0
 30
0.0
 11
-0.209
 21
0.0
 31
0.0
  0
LINE
  5
188
330
17F
100
AcDbEntity
  8
0
  6
Continuous
 62
     0
370
     0
100
AcDbLine
 10
0.0
 20
-0.2
 30
0.0
 11
0.0
 21
-0.209
 31
0.0
  0
LINE
  5
189
330
17F
100
AcDbEntity
  8
0
  6
Continuous
 62
     0
370
     0
100
AcDbLine
 10
0.2
 20
0.0
 30
0.0
 11
0.209
 21
0.0
 31
0.0
  0
ENDBLK
  5
181
330
17F
100
AcDbEntity
  8
0
100
AcDbBlockEnd
  0
BLOCK
  5
196
330
195
100
AcDbEntity
  8
0
100
AcDbBlockBegin
  2
_D_7
 70
     0
 10
0.0
 20
0.0
 30
0.0
  3
_D_7
  1

  0
SOLID
  5
198
330
195
100
AcDbEntity
  8
0
  6
Continuous
 62
     7
370
     0
100
AcDbTrace
 10
8.3296495104
 20
8.3386003016
 30
0.0
 11
8.2356495104
 21
8.3586003016
 31
0.0
 12
8.2356495104
 22
8.3186003016
 32
0.0
 13
8.2356495104
 23
8.3186003016
 33
0.0
  0
SOLID
  5
199
330
195
100
AcDbEntity
  8
0
  6
Continuous
 62
     7
370
     0
100
AcDbTrace
 10
8.4546495104
 20
8.3386003016
 30
0.0
 11
8.5486495104
 21
8.3186003016
 31
0.0
 12
8.5486495104
 22
8.3586003016
 32
0.0
 13
8.5486495104
 23
8.3586003016
 33
0.0
  0
LINE
  5
19A
330
195
100
AcDbEntity
  8
0
  6
Continuous
 62
     7
370
     0
100
AcDbLine
 10
9.2730481642
 20
8.4345204402
 30
0.0
 11
9.2300794156
 21
8.4345204402
 31
0.0
  0
LINE
  5
19B
330
195
100
AcDbEntity
  8
0
  6
Continuous
 62
     7
370
     0
100
AcDbLine
 10
9.2300794156
 20
8.4345204402
 30
0.0
 11
9.2300794156
 21
8.242680163
 31
0.0
  0
LINE
  5
19C
330
195
100
AcDbEntity
  8
0
  6
Continuous
 62
     7
370
     0
100
AcDbLine
 10
9.2300794156
 20
8.242680163
 30
0.0
 11
9.2730481642
 21
8.242680163
 31
0.0
  0
LINE
  5
19D
330
195
100
AcDbEntity
  8
0
  6
Continuous
 62
     7
370
     0
100
AcDbLine
 10
9.6072495669
 20
8.4345204402
 30
0.0
 11
9.6502183155
 21
8.4345204402
 31
0.0
  0
LINE
  5
19E
330
195
100
AcDbEntity
  8
0
  6
Continuous
 62
     7
370
     0
100
AcDbLine
 10
9.6502183155
 20
8.4345204402
 30
0.0
 11
9.6502183155
 21
8.242680163
 31
0.0
  0
LINE
  5
19F
330
195
100
AcDbEntity
  8
0
  6
Continuous
 62
     7
370
     0
100
AcDbLine
 10
9.6502183155
 20
8.242680163
 30
0.0
 11
9.6072495669
 21
8.242680163
 31
0.0
  0
LINE
  5
1A0
330
195
100
AcDbEntity
  8
0
  6
Continuous
 62
     7
370
     0
100
AcDbLine
 10
8.3296495104
 20
7.8771584504
 30
0.0
 11
8.3296495104
 21
8.4636003016
 31
0.0
  0
LINE
  5
1A1
330
195
100
AcDbEntity
  8
0
  6
Continuous
 62
     7
370
     0
100
AcDbLine
 10
8.4546495104
 20
7.8771584504
 30
0.0
 11
8.4546495104
 21
8.4636003016
 31
0.0
  0
LINE
  5
1A2
330
195
100
AcDbEntity
  8
0
  6
Continuous
 62
     7
370
     0
100
AcDbLine
 10
8.3296495104
 20
8.3386003016
 30
0.0
 11
8.1416495104
 21
8.3386003016
 31
0.0
  0
LINE
  5
1A3
330
195
100
AcDbEntity
  8
0
  6
Continuous
 62
     7
370
     0
100
AcDbLine
 10
8.4546495104
 20
8.3386003016
 30
0.0
 11
8.9197951111
 21
8.3386003016
 31
0.0
  0
MTEXT
  5
1A4
330
195
100
AcDbEntity
  8
0
  6
Continuous
 62
     7
370
     0
100
AcDbMText
 10
8.9483953847
 20
8.4038136351
 30
0.0
 40
0.125
 41
0.0
 71
     1
 72
     1
  1
.13
  7
SLDTEXTSTYLE0
 73
     1
 44
1.0
  0
MTEXT
  5
1A5
330
195
100
AcDbEntity
  8
0
  6
Continuous
 62
     7
370
     0
100
AcDbMText
 10
9.2730481642
 20
8.4038136351
 30
0.0
 40
0.125
 41
0.0
 71
     1
 72
     1
  1
3.18
  7
SLDTEXTSTYLE0
 73
     1
 44
1.0
  0
ENDBLK
  5
197
330
195
100
AcDbEntity
  8
0
100
AcDbBlockEnd
  0
ENDSEC
  0
SECTION
  2
ENTITIES
  0
LINE
  5
73
330
1F
100
AcDbEntity
  8
0
  6
Continuous
 62
     7
370
     0
100
AcDbLine
 10
0.6262516046
 20
10.6420731707
 30
0.0
 11
16.3762516046
 21
10.6420731707
 31
0.0
  0
LINE
  5
74
330
1F
100
AcDbEntity
  8
0
  6
Continuous
 62
     7
370
     0
100
AcDbLine
 10
0.6262516046
 20
10.6420731707
 30
0.0
 11
0.6262516046
 21
0.3920731707
 31
0.0
  0
LINE
  5
75
330
1F
100
AcDbEntity
  8
0
  6
Continuous
 62
     7
370
     0
100
AcDbLine
 10
16.3762516046
 20
0.3920731707
 30
0.0
 11
0.6262516046
 21
0.3920731707
 31
0.0
  0
LINE
  5
76
330
1F
100
AcDbEntity
  8
0
  6
Continuous
 62
     7
370
     0
100
AcDbLine
 10
16.3762516046
 20
0.3920731707
 30
0.0
 11
16.3762516046
 21
10.6420731707
 31
0.0
  0
LINE
  5
77
330
1F
100
AcDbEntity
  8
0
  6
Continuous
 62
     7
370
     0
100
AcDbLine
 10
11.8762516046
 20
1.1420731707
 30
0.0
 11
9.7512516046
 21
1.1420731707
 31
0.0
  0
LINE
  5
78
330
1F
100
AcDbEntity
  8
0
  6
Continuous
 62
     7
370
     0
100
AcDbLine
 10
9.7512516046
 20
0.3920731707
 30
0.0
 11
9.7512516046
 21
1.1420731707
 31
0.0
  0
LINE
  5
79
330
1F
100
AcDbEntity
  8
0
  6
Continuous
 62
     7
370
     0
100
AcDbLine
 10
9.7512516046
 20
0.3920731707
 30
0.0
 11
11.8762516046
 21
0.3920731707
 31
0.0
  0
LINE
  5
7A
330
1F
100
AcDbEntity
  8
0
  6
Continuous
 62
     7
370
     0
100
AcDbLine
 10
11.8762516046
 20
1.7670731707
 30
0.0
 11
16.3762516046
 21
1.7670731707
 31
0.0
  0
LINE
  5
7B
330
1F
100
AcDbEntity
  8
0
  6
Continuous
 62
     7
370
     0
100
AcDbLine
 10
11.9115585544
 20
2.4690731707
 30
0.0
 11
11.9115585544
 21
1.8150731707
 31
0.0
  0
LINE
  5
7C
330
1F
100
AcDbEntity
  8
0
  6
Continuous
 62
     7
370
     0
100
AcDbLine
 10
11.9115585544
 20
1.8150731707
 30
0.0
 11
13.2849407409
 21
1.8150731707
 31
0.0
  0
LINE
  5
7D
330
1F
100
AcDbEntity
  8
0
  6
Continuous
 62
     7
370
     0
100
AcDbLine
 10
13.2849407409
 20
1.8150731707
 30
0.0
 11
13.2849407409
 21
2.4690731707
 31
0.0
  0
LINE
  5
7E
330
1F
100
AcDbEntity
  8
0
  6
Continuous
 62
     7
370
     0
100
AcDbLine
 10
13.2849407409
 20
2.4690731707
 30
0.0
 11
11.9115585544
 21
2.4690731707
 31
0.0
  0
LINE
  5
7F
330
1F
100
AcDbEntity
  8
0
  6
Continuous
 62
     7
370
     0
100
AcDbLine
 10
11.9604026497
 20
1.8794357697
 30
0.0
 11
12.3464026497
 21
2.4024357697
 31
0.0
  0
LINE
  5
80
330
1F
100
AcDbEntity
  8
0
  6
Continuous
 62
     7
370
     0
100
AcDbLine
 10
12.3464026497
 20
2.4024357697
 30
0.0
 11
12.7324026497
 21
1.8794357697
 31
0.0
  0
LINE
  5
81
330
1F
100
AcDbEntity
  8
0
  6
Continuous
 62
     7
370
     0
100
AcDbLine
 10
12.0971179755
 20
1.8794357697
 30
0.0
 11
12.3464026497
 21
2.2171971288
 31
0.0
  0
LINE
  5
82
330
1F
100
AcDbEntity
  8
0
  6
Continuous
 62
     7
370
     0
100
AcDbLine
 10
12.3464026497
 20
2.2171971288
 30
0.0
 11
12.595687324
 21
1.8794357697
 31
0.0
  0
LINE
  5
83
330
1F
100
AcDbEntity
  8
0
  6
Continuous
 62
     7
370
     0
100
AcDbLine
 10
11.9604026497
 20
1.8794357697
 30
0.0
 11
12.0971179755
 21
1.8794357697
 31
0.0
  0
LINE
  5
84
330
1F
100
AcDbEntity
  8
0
  6
Continuous
 62
     7
370
     0
100
AcDbLine
 10
12.595687324
 20
1.8794357697
 30
0.0
 11
12.7324026497
 21
1.8794357697
 31
0.0
  0
LINE
  5
85
330
1F
100
AcDbEntity
  8
0
  6
Continuous
 62
     7
370
     0
100
AcDbLine
 10
11.9861545618
 20
1.8924357697
 30
0.0
 11
12.3464026497
 21
2.3805439303
 31
0.0
  0
LINE
  5
86
330
1F
100
AcDbEntity
  8
0
  6
Continuous
 62
     7
370
     0
100
AcDbLine
 10
12.3464026497
 20
2.3805439303
 30
0.0
 11
12.7066507377
 21
1.8924357697
 31
0.0
  0
LINE
  5
87
330
1F
100
AcDbEntity
  8
0
  6
Continuous
 62
     7
370
     0
100
AcDbLine
 10
11.8762516046
 20
0.3920731707
 30
0.0
 11
11.8762516046
 21
1.1420731707
 31
0.0
  0
LINE
  5
88
330
1F
100
AcDbEntity
  8
0
  6
Continuous
 62
     7
370
     0
100
AcDbLine
 10
11.8762516046
 20
2.5170731707
 30
0.0
 11
16.3762516046
 21
2.5170731707
 31
0.0
  0
LINE
  5
89
330
1F
100
AcDbEntity
  8
0
  6
Continuous
 62
     7
370
     0
100
AcDbLine
 10
11.8762516046
 20
2.5170731707
 30
0.0
 11
11.8762516046
 21
0.3920731707
 31
0.0
  0
LINE
  5
8A
330
1F
100
AcDbEntity
  8
0
  6
Continuous
 62
     7
370
     0
100
AcDbLine
 10
12.0023118275
 20
1.8924357697
 30
0.0
 11
12.3464026497
 21
2.3586520909
 31
0.0
  0
LINE
  5
8B
330
1F
100
AcDbEntity
  8
0
  6
Continuous
 62
     7
370
     0
100
AcDbLine
 10
12.3464026497
 20
2.3586520909
 30
0.0
 11
12.6904934719
 21
1.8924357697
 31
0.0
  0
LINE
  5
8C
330
1F
100
AcDbEntity
  8
0
  6
Continuous
 62
     7
370
     0
100
AcDbLine
 10
14.0307293083
 20
10.6420731707
 30
0.0
 11
14.0307293083
 21
10.2892517875
 31
0.0
  0
LINE
  5
8D
330
1F
100
AcDbEntity
  8
0
  6
Continuous
 62
     7
370
     0
100
AcDbLine
 10
11.8762516046
 20
1.1420731707
 30
0.0
 11
16.3762516046
 21
1.1420731707
 31
0.0
  0
LINE
  5
8E
330
1F
100
AcDbEntity
  8
0
  6
Continuous
 62
     7
370
     0
100
AcDbLine
 10
12.0184690933
 20
1.8924357697
 30
0.0
 11
12.3464026497
 21
2.3367602515
 31
0.0
  0
LINE
  5
8F
330
1F
100
AcDbEntity
  8
0
  6
Continuous
 62
     7
370
     0
100
AcDbLine
 10
12.3464026497
 20
2.3367602515
 30
0.0
 11
12.6743362062
 21
1.8924357697
 31
0.0
  0
LINE
  5
90
330
1F
100
AcDbEntity
  8
0
  6
Continuous
 62
     7
370
     0
100
AcDbLine
 10
12.090555356
 20
1.8924357697
 30
0.0
 11
12.3464026497
 21
2.2390889682
 31
0.0
  0
LINE
  5
91
330
1F
100
AcDbEntity
  8
0
  6
Continuous
 62
     7
370
     0
100
AcDbLine
 10
12.3464026497
 20
2.2390889682
 30
0.0
 11
12.6022499435
 21
1.8924357697
 31
0.0
  0
LINE
  5
92
330
1F
100
AcDbEntity
  8
0
  6
Continuous
 62
     7
370
     0
100
AcDbLine
 10
8.7512516046
 20
0.3920731707
 30
0.0
 11
11.8762516046
 21
0.3920731707
 31
0.0
  0
LINE
  5
93
330
1F
100
AcDbEntity
  8
0
  6
Continuous
 62
     7
370
     0
100
AcDbLine
 10
12.0743980902
 20
1.8924357697
 30
0.0
 11
12.3464026497
 21
2.2609808076
 31
0.0
  0
LINE
  5
94
330
1F
100
AcDbEntity
  8
0
  6
Continuous
 62
     7
370
     0
100
AcDbLine
 10
12.3464026497
 20
2.2609808076
 30
0.0
 11
12.6184072093
 21
1.8924357697
 31
0.0
  0
LINE
  5
95
330
1F
100
AcDbEntity
  8
0
  6
Continuous
 62
     7
370
     0
100
AcDbLine
 10
12.0582408244
 20
1.8924357697
 30
0.0
 11
12.3464026497
 21
2.2828726469
 31
0.0
  0
LINE
  5
96
330
1F
100
AcDbEntity
  8
0
  6
Continuous
 62
     7
370
     0
100
AcDbLine
 10
12.3464026497
 20
2.2828726469
 30
0.0
 11
12.634564475
 21
1.8924357697
 31
0.0
  0
LINE
  5
97
330
1F
100
AcDbEntity
  8
0
  6
Continuous
 62
     7
370
     0
100
AcDbLine
 10
12.0420835587
 20
1.8924357697
 30
0.0
 11
12.3464026497
 21
2.3047644863
 31
0.0
  0
LINE
  5
98
330
1F
100
AcDbEntity
  8
0
  6
Continuous
 62
     7
370
     0
100
AcDbLine
 10
12.6507217408
 20
1.8924357697
 30
0.0
 11
12.3464026497
 21
2.3047644863
 31
0.0
  0
LINE
  5
99
330
1F
100
AcDbEntity
  8
0
  6
Continuous
 62
     7
370
     0
100
AcDbLine
 10
14.0307293083
 20
10.2892517875
 30
0.0
 11
16.3762516046
 21
10.2892517875
 31
0.0
  0
LINE
  5
9A
330
1F
100
AcDbEntity
  8
0
  6
Continuous
 62
     7
370
     0
100
AcDbLine
 10
12.0299355894
 20
1.8924357697
 30
0.0
 11
12.3468230248
 21
2.3210148722
 31
0.0
  0
LINE
  5
9B
330
1F
100
AcDbEntity
  8
0
  6
Continuous
 62
     7
370
     0
100
AcDbLine
 10
12.3468230248
 20
2.3210148722
 30
0.0
 11
12.6631357085
 21
1.8924357697
 31
0.0
  0
LINE
  5
9C
330
1F
100
AcDbEntity
  8
0
  6
Continuous
 62
     7
370
     0
100
AcDbLine
 10
12.6256385484
 20
2.0897683474
 30
0.0
 11
12.8564026497
 21
2.4024357697
 31
0.0
  0
LINE
  5
9D
330
1F
100
AcDbEntity
  8
0
  6
Continuous
 62
     7
370
     0
100
AcDbLine
 10
12.6417958141
 20
2.0897683474
 30
0.0
 11
12.8564026497
 21
2.3805439303
 31
0.0
  0
LINE
  5
9E
330
1F
100
AcDbEntity
  8
0
  6
Continuous
 62
     7
370
     0
100
AcDbLine
 10
12.649874447
 20
2.0788224277
 30
0.0
 11
12.8564026497
 21
2.3586520909
 31
0.0
  0
LINE
  5
9F
330
1F
100
AcDbEntity
  8
0
  6
Continuous
 62
     7
370
     0
100
AcDbLine
 10
12.6697603126
 20
2.0518786254
 30
0.0
 11
12.8564026497
 21
2.3047644863
 31
0.0
  0
LINE
  5
A0
330
1F
100
AcDbEntity
  8
0
  6
Continuous
 62
     7
370
     0
100
AcDbLine
 10
12.6778389455
 20
2.0409327057
 30
0.0
 11
12.8564026497
 21
2.2828726469
 31
0.0
  0
LINE
  5
A1
330
1F
100
AcDbEntity
  8
0
  6
Continuous
 62
     7
370
     0
100
AcDbLine
 10
12.6579530799
 20
2.067876508
 30
0.0
 11
12.8564026497
 21
2.3367602515
 31
0.0
  0
LINE
  5
A2
330
1F
100
AcDbEntity
  8
0
  6
Continuous
 62
     7
370
     0
100
AcDbLine
 10
12.6637986557
 20
2.0599562071
 30
0.0
 11
12.8568230248
 21
2.3210148722
 31
0.0
  0
LINE
  5
A3
330
1F
100
AcDbEntity
  8
0
  6
Continuous
 62
     7
370
     0
100
AcDbLine
 10
12.5843980902
 20
1.8924357697
 30
0.0
 11
12.585245384
 21
1.8935837869
 31
0.0
  0
LINE
  5
A4
330
1F
100
AcDbEntity
  8
0
  6
Continuous
 62
     7
370
     0
100
AcDbLine
 10
12.600555356
 20
1.8924357697
 30
0.0
 11
12.6014026497
 21
1.8935837869
 31
0.0
  0
LINE
  5
A5
330
1F
100
AcDbEntity
  8
0
  6
Continuous
 62
     7
370
     0
100
AcDbLine
 10
12.6939962112
 20
1.997149027
 30
0.0
 11
12.8564026497
 21
2.2171971288
 31
0.0
  0
LINE
  5
A6
330
1F
100
AcDbEntity
  8
0
  6
Continuous
 62
     7
370
     0
100
AcDbLine
 10
12.8564026497
 20
2.2171971288
 30
0.0
 11
13.105687324
 21
1.8794357697
 31
0.0
  0
LINE
  5
A7
330
1F
100
AcDbEntity
  8
0
  6
Continuous
 62
     7
370
     0
100
AcDbLine
 10
12.8564026497
 20
2.2390889682
 30
0.0
 11
13.1122499435
 21
1.8924357697
 31
0.0
  0
LINE
  5
A8
330
1F
100
AcDbEntity
  8
0
  6
Continuous
 62
     7
370
     0
100
AcDbLine
 10
12.8564026497
 20
2.2609808076
 30
0.0
 11
13.1284072093
 21
1.8924357697
 31
0.0
  0
LINE
  5
A9
330
1F
100
AcDbEntity
  8
0
  6
Continuous
 62
     7
370
     0
100
AcDbLine
 10
12.8564026497
 20
2.2828726469
 30
0.0
 11
13.144564475
 21
1.8924357697
 31
0.0
  0
LINE
  5
AA
330
1F
100
AcDbEntity
  8
0
  6
Continuous
 62
     7
370
     0
100
AcDbLine
 10
13.1607217408
 20
1.8924357697
 30
0.0
 11
12.8564026497
 21
2.3047644863
 31
0.0
  0
LINE
  5
AB
330
1F
100
AcDbEntity
  8
0
  6
Continuous
 62
     7
370
     0
100
AcDbLine
 10
12.8568230248
 20
2.3210148722
 30
0.0
 11
13.1731357085
 21
1.8924357697
 31
0.0
  0
LINE
  5
AC
330
1F
100
AcDbEntity
  8
0
  6
Continuous
 62
     7
370
     0
100
AcDbLine
 10
12.8564026497
 20
2.3367602515
 30
0.0
 11
13.1843362062
 21
1.8924357697
 31
0.0
  0
LINE
  5
AD
330
1F
100
AcDbEntity
  8
0
  6
Continuous
 62
     7
370
     0
100
AcDbLine
 10
12.8564026497
 20
2.3586520909
 30
0.0
 11
13.2004934719
 21
1.8924357697
 31
0.0
  0
LINE
  5
AE
330
1F
100
AcDbEntity
  8
0
  6
Continuous
 62
     7
370
     0
100
AcDbLine
 10
12.8564026497
 20
2.3805439303
 30
0.0
 11
13.2166507377
 21
1.8924357697
 31
0.0
  0
LINE
  5
AF
330
1F
100
AcDbEntity
  8
0
  6
Continuous
 62
     7
370
     0
100
AcDbLine
 10
12.8564026497
 20
2.4024357697
 30
0.0
 11
13.2424026497
 21
1.8794357697
 31
0.0
  0
LINE
  5
B0
330
1F
100
AcDbEntity
  8
0
  6
Continuous
 62
     7
370
     0
100
AcDbLine
 10
13.105687324
 20
1.8794357697
 30
0.0
 11
13.2424026497
 21
1.8794357697
 31
0.0
  0
LINE
  5
B1
330
1F
100
AcDbEntity
  8
0
  6
Continuous
 62
     7
370
     0
100
AcDbLine
 10
12.6256385484
 20
2.0897683474
 30
0.0
 11
12.6939962112
 21
1.997149027
 31
0.0
  0
LINE
  5
B2
330
1F
100
AcDbEntity
  8
0
  6
Continuous
 62
     7
370
     0
100
AcDbLine
 10
12.6859175784
 20
2.029986786
 30
0.0
 11
12.8564026497
 21
2.2609808076
 31
0.0
  0
LINE
  5
B3
330
1F
100
AcDbEntity
  8
0
  6
Continuous
 62
     7
370
     0
100
AcDbLine
 10
12.6939962112
 20
2.0190408663
 30
0.0
 11
12.8564026497
 21
2.2390889682
 31
0.0
  0
CIRCLE
  5
B4
330
1F
100
AcDbEntity
  8
0
  6
Continuous
 62
     7
370
     0
100
AcDbCircle
 10
12.3464026497
 20
2.0365156974
 30
0.0
 40
0.085000000000001
  0
CIRCLE
  5
B5
330
1F
100
AcDbEntity
  8
0
  6
Continuous
 62
     7
370
     0
100
AcDbCircle
 10
12.3464026497
 20
2.0365156974
 30
0.0
 40
0.0668829722549127
  0
CIRCLE
  5
B6
330
1F
100
AcDbEntity
  8
0
  6
Continuous
 62
     7
370
     0
100
AcDbCircle
 10
12.3464026497
 20
2.0365156974
 30
0.0
 40
0.0497041167226106
  0
CIRCLE
  5
B7
330
1F
100
AcDbEntity
  8
0
  6
Continuous
 62
     7
370
     0
100
AcDbCircle
 10
12.3464026497
 20
2.0365156974
 30
0.0
 40
0.0316033058151713
  0
CIRCLE
  5
B8
330
1F
100
AcDbEntity
  8
0
  6
Continuous
 62
     7
370
     0
100
AcDbCircle
 10
12.3464026497
 20
2.0365156974
 30
0.0
 40
0.0153814812308201
  0
CIRCLE
  5
B9
330
1F
100
AcDbEntity
  8
0
  6
Continuous
 62
     7
370
     0
100
AcDbCircle
 10
13.3953498971
 20
2.3210148722
 30
0.0
 40
0.0764999999999987
  0
MTEXT
  5
BB
330
1F
100
AcDbEntity
  8
0
  6
Continuous
 62
     7
370
     0
100
AcDbMText
 10
4.5590578968
 20
2.2098213503
 30
0.0
 40
0.1458333333
 41
0.0
 71
     1
 72
     1
  1
White Fiberglass Reinforced Polyester
  7
SLDTEXTSTYLE0
 73
     1
 44
1.0
  0
MTEXT
  5
BD
330
1F
100
AcDbEntity
  8
0
  6
Continuous
 62
     7
370
     0
100
AcDbMText
 10
13.3557876923
 20
2.3732299511
 30
0.0
 40
0.1098
 41
0.0
 71
     1
 72
     1
  1
R
  7
SLDTEXTSTYLE1
 73
     1
 44
1.0
  0
MTEXT
  5
BE
330
1F
100
AcDbEntity
  8
0
  6
Continuous
 62
     7
370
     0
100
AcDbMText
 10
13.5667959126
 20
2.4222761
 30
0.0
 40
0.156
 41
0.0
 71
     1
 72
     1
  1
ALLIED MOULDED PRODUCTS
  7
SLDTEXTSTYLE1
 73
     1
 44
1.0
  0
MTEXT
  5
BF
330
1F
100
AcDbEntity
  8
0
  6
Continuous
 62
     7
370
     0
100
AcDbMText
 10
14.3717658824
 20
2.2340561697
 30
0.0
 40
0.1418
 41
0.0
 71
     1
 72
     1
  1
BRYAN, OHIO
  7
SLDTEXTSTYLE1
 73
     1
 44
1.0
  0
MTEXT
  5
C1
330
1F
100
AcDbEntity
  8
0
  6
Continuous
 62
     7
370
     0
100
AcDbMText
 10
13.6593337363
 20
1.9723580255
 30
0.0
 40
0.1145833333
 41
0.0
 71
     1
 72
     1
  1
The Original Fiber Glass Outlet Box
  7
SLDTEXTSTYLE2
 73
     1
 44
1.0
  0
MTEXT
  5
C2
330
1F
100
AcDbEntity
  8
0
  6
Continuous
 62
     7
370
     0
100
AcDbMText
 10
11.9026195597
 20
1.7391536032
 30
0.0
 40
0.0833333333
 41
0.0
 71
     1
 72
     1
  1
PRODUCT SERIES
  7
SLDTEXTSTYLE1
 73
     1
 44
1.0
  0
MTEXT
  5
C3
330
1F
100
AcDbEntity
  8
0
  6
Continuous
 62
     7
370
     0
100
AcDbMText
 10
11.9022624172
 20
1.142786349
 30
0.0
 40
0.0833333333
 41
0.0
 71
     1
 72
     1
  1
Part No.
  7
SLDTEXTSTYLE1
 73
     1
 44
1.0
  0
MTEXT
  5
C4
330
1F
100
AcDbEntity
  8
0
  6
Continuous
 62
     7
370
     0
100
AcDbMText
 10
10.1444325596
 20
1.0608844247
 30
0.0
 40
0.125
 41
0.0
 71
     1
 72
     1
  1
CONFIDENTIAL
  7
SLDTEXTSTYLE2
 73
     1
 44
1.0
  0
INSERT
  5
CD
330
1F
100
AcDbEntity
  8
0
  6
Continuous
 62
     7
370
     0
100
AcDbBlockReference
  2
SW_NOTE_0
 10
9.7941464524
 20
0.7902160386
 30
0.0
  0
MTEXT
  5
CE
330
1F
100
AcDbEntity
  8
0
  6
Continuous
 62
     7
370
     0
100
AcDbMText
 10
15.1606591697
 20
10.5131302133
 30
0.0
 40
0.125
 41
0.0
 71
     1
 72
     1
  1
6/24/2016
  7
SLDTEXTSTYLE1
 73
     1
 44
1.0
  0
MTEXT
  5
CF
330
1F
100
AcDbEntity
  8
0
  6
Continuous
 62
     7
370
     0
100
AcDbMText
 10
12.0586255498
 20
0.9386490467
 30
0.0
 40
0.375
 41
0.0
 71
     1
 72
     1
  1
PF74
  7
SLDTEXTSTYLE1
 73
     1
 44
1.0
  0
MTEXT
  5
D0
330
1F
100
AcDbEntity
  8
0
  6
Continuous
 62
     7
370
     0
100
AcDbMText
 10
11.9932717106
 20
1.5548319037
 30
0.0
 40
0.25
 41
0.0
 71
     1
 72
     1
  1
Access-Indus
  7
SLDTEXTSTYLE1
 73
     1
 44
1.0
  0
MTEXT
  5
D1
330
1F
100
AcDbEntity
  8
0
  6
Continuous
 62
     7
370
     0
100
AcDbMText
 10
14.1040673614
 20
10.5131302133
 30
0.0
 40
0.125
 41
0.0
 71
     1
 72
     1
  1
ISSUE DATE:
  7
SLDTEXTSTYLE1
 73
     1
 44
1.0
  0
CIRCLE
  5
D2
330
1F
100
AcDbEntity
  8
0
  6
Continuous
 62
     7
370
    15
100
AcDbCircle
 10
2.573785398
 20
7.6091584504
 30
0.0
 40
0.109
  0
CIRCLE
  5
D3
330
1F
100
AcDbEntity
  8
0
  6
Continuous
 62
     7
370
    15
100
AcDbCircle
 10
5.198785398
 20
7.6091584504
 30
0.0
 40
0.1089999999999991
  0
CIRCLE
  5
D4
330
1F
100
AcDbEntity
  8
0
  6
Continuous
 62
     7
370
    15
100
AcDbCircle
 10
5.198785398
 20
4.0451584504
 30
0.0
 40
0.1089999999999991
  0
CIRCLE
  5
D5
330
1F
100
AcDbEntity
  8
0
  6
Continuous
 62
     7
370
    15
100
AcDbCircle
 10
2.573785398
 20
4.0451584504
 30
0.0
 40
0.109
  0
LINE
  5
D6
330
1F
100
AcDbEntity
  8
0
  6
Continuous
 62
     7
370
    15
100
AcDbLine
 10
5.4487852562
 20
7.8271585491
 30
0.0
 11
2.3237853948
 21
7.8271585491
 31
0.0
  0
LINE
  5
D7
330
1F
100
AcDbEntity
  8
0
  6
Continuous
 62
     7
370
    15
100
AcDbLine
 10
5.4487852562
 20
3.8271584508
 30
0.0
 11
5.4487852562
 21
7.8271585491
 31
0.0
  0
LINE
  5
D8
330
1F
100
AcDbEntity
  8
0
  6
Continuous
 62
     7
370
    15
100
AcDbLine
 10
2.3237853948
 20
3.8271584508
 30
0.0
 11
5.4487852562
 21
3.8271584508
 31
0.0
  0
LINE
  5
D9
330
1F
100
AcDbEntity
  8
0
  6
Continuous
 62
     7
370
    15
100
AcDbLine
 10
2.3237853948
 20
7.8271585491
 30
0.0
 11
2.3237853948
 21
3.8271584508
 31
0.0
  0
DIMENSION
  5
DA
330
1F
100
AcDbEntity
  8
0
  6
Continuous
 62
     7
370
     0
100
AcDbDimension
  2
_D
 10
2.323785398
 20
8.9295206551
 30
0.0
 11
3.8269151296
 21
8.9295206551
 31
0.0
 70
   160
  1
<>
 71
     2
 42
-1.0
  3
SLDDIMSTYLE0
100
AcDbAlignedDimension
 13
5.448785398
 23
7.8271584504
 33
0.0
 14
2.323785398
 24
7.8271584504
 34
0.0
100
AcDbRotatedDimension
  0
DIMENSION
  5
ED
330
1F
100
AcDbEntity
  8
0
  6
Continuous
 62
     7
370
     0
100
AcDbDimension
  2
_D_1
 10
6.7873680752
 20
7.8271584504
 30
0.0
 11
6.7873680752
 21
5.6205021192
 31
0.0
 70
   160
  1
<>
 71
     2
 42
-1.0
  3
SLDDIMSTYLE1
100
AcDbAlignedDimension
 13
5.448785398
 23
3.8271584504
 33
0.0
 14
5.448785398
 24
7.8271584504
 34
0.0
 50
90.0
100
AcDbRotatedDimension
  0
DIMENSION
  5
100
330
1F
100
AcDbEntity
  8
0
  6
Continuous
 62
     7
370
     0
100
AcDbDimension
  2
_D_2
 10
2.5322463041
 20
4.1459329694
 30
0.0
 11
3.562874321
 21
3.351352687
 31
0.0
 70
   163
  1
<> 4x
 71
     1
 42
-1.0
  3
SLDDIMSTYLE2
100
AcDbDiametricDimension
 15
2.6153244919
 25
3.9443839314
 35
0.0
 40
0.0
  0
DIMENSION
  5
112
330
1F
100
AcDbEntity
  8
0
  6
Continuous
 62
     7
370
     0
100
AcDbDimension
  2
_D_3
 10
1.6888641382
 20
7.8271584504
 30
0.0
 11
1.6888641382
 21
6.9600168708
 31
0.0
 70
   160
  1
<>
 71
     2
 42
-1.0
  3
SLDDIMSTYLE0
100
AcDbAlignedDimension
 13
2.364785398
 23
7.6091584504
 33
0.0
 14
2.323785398
 24
7.8271584504
 34
0.0
 50
90.0
100
AcDbRotatedDimension
  0
DIMENSION
  5
125
330
1F
100
AcDbEntity
  8
0
  6
Continuous
 62
     7
370
     0
100
AcDbDimension
  2
_D_4
 10
2.323785398
 20
8.2208592378
 30
0.0
 11
1.1715808506
 21
8.2208592378
 31
0.0
 70
   160
  1
<>
 71
     2
 42
-1.0
  3
SLDDIMSTYLE0
100
AcDbAlignedDimension
 13
2.573785398
 23
7.8181584504
 33
0.0
 14
2.323785398
 24
7.8271584504
 34
0.0
100
AcDbRotatedDimension
  0
DIMENSION
  5
137
330
1F
100
AcDbEntity
  8
0
  6
Continuous
 62
     7
370
     0
100
AcDbDimension
  2
_D_5
 10
5.198785398
 20
8.405132643
 30
0.0
 11
3.8294151296
 21
8.405132643
 31
0.0
 70
   160
  1
<>
 71
     2
 42
-1.0
  3
SLDDIMSTYLE0
100
AcDbAlignedDimension
 13
2.573785398
 23
7.8181584504
 33
0.0
 14
5.198785398
 24
7.8181584504
 34
0.0
100
AcDbRotatedDimension
  0
DIMENSION
  5
149
330
1F
100
AcDbEntity
  8
0
  6
Continuous
 62
     7
370
     0
100
AcDbDimension
  2
_D_6
 10
6.2137829024
 20
7.6091584504
 30
0.0
 11
6.2137829024
 21
6.0815445791
 31
0.0
 70
   160
  1
<>
 71
     2
 42
-1.0
  3
SLDDIMSTYLE0
100
AcDbAlignedDimension
 13
5.407785398
 23
4.0451584504
 33
0.0
 14
5.407785398
 24
7.6091584504
 34
0.0
 50
90.0
100
AcDbRotatedDimension
  0
INSERT
  5
166
330
1F
100
AcDbEntity
  8
0
  6
Continuous
 62
     7
370
     0
100
AcDbBlockReference
  2
SW_CENTERMARKSYMBOL_0
 10
5.198785398
 20
7.6091584504
 30
0.0
  0
INSERT
  5
172
330
1F
100
AcDbEntity
  8
0
  6
Continuous
 62
     7
370
     0
100
AcDbBlockReference
  2
SW_CENTERMARKSYMBOL_1
 10
2.573785398
 20
7.6091584504
 30
0.0
  0
INSERT
  5
17E
330
1F
100
AcDbEntity
  8
0
  6
Continuous
 62
     7
370
     0
100
AcDbBlockReference
  2
SW_CENTERMARKSYMBOL_2
 10
2.573785398
 20
4.0451584504
 30
0.0
  0
INSERT
  5
18A
330
1F
100
AcDbEntity
  8
0
  6
Continuous
 62
     7
370
     0
100
AcDbBlockReference
  2
SW_CENTERMARKSYMBOL_3
 10
5.198785398
 20
4.0451584504
 30
0.0
  0
LINE
  5
18B
330
1F
100
AcDbEntity
  8
0
  6
Continuous
 62
     7
370
    15
100
AcDbLine
 10
8.3296495119
 20
3.8271584508
 30
0.0
 11
8.3296495119
 21
7.8271585491
 31
0.0
  0
LINE
  5
18C
330
1F
100
AcDbEntity
  8
0
  6
Continuous
 62
     7
370
    15
100
AcDbLine
 10
8.3296495119
 20
7.8271585491
 30
0.0
 11
8.4546495104
 21
7.8271585491
 31
0.0
  0
LINE
  5
18D
330
1F
100
AcDbEntity
  8
0
  6
Continuous
 62
     7
370
    15
100
AcDbLine
 10
8.3296495119
 20
3.8271584508
 30
0.0
 11
8.4546495104
 21
3.8271584508
 31
0.0
  0
LINE
  5
18E
330
1F
100
AcDbEntity
  8
0
  6
Continuous
 62
     7
370
    15
100
AcDbLine
 10
8.4546495104
 20
3.8271584508
 30
0.0
 11
8.4546495104
 21
7.8271585491
 31
0.0
  0
LINE
  5
18F
330
1F
100
AcDbEntity
  8
0
  6
HIDDEN
 62
     7
370
     0
100
AcDbLine
 10
8.3296495119
 20
7.5001584333
 30
0.0
 11
8.4546495104
 21
7.5001584333
 31
0.0
  0
LINE
  5
190
330
1F
100
AcDbEntity
  8
0
  6
HIDDEN
 62
     7
370
     0
100
AcDbLine
 10
8.4546495104
 20
7.718158315
 30
0.0
 11
8.3296495119
 21
7.718158315
 31
0.0
  0
LINE
  5
191
330
1F
100
AcDbEntity
  8
0
  6
HIDDEN
 62
     7
370
     0
100
AcDbLine
 10
8.3296495119
 20
3.936158465
 30
0.0
 11
8.4546495104
 21
3.936158465
 31
0.0
  0
LINE
  5
192
330
1F
100
AcDbEntity
  8
0
  6
HIDDEN
 62
     7
370
     0
100
AcDbLine
 10
8.4546495104
 20
4.1541584566
 30
0.0
 11
8.3296495119
 21
4.1541584566
 31
0.0
  0
DIMENSION
  5
193
330
1F
100
AcDbEntity
  8
0
  6
Continuous
 62
     7
370
     0
100
AcDbDimension
  2
_D_7
 10
8.4546495104
 20
8.3386003016
 30
0.0
 11
9.3207912427
 21
8.3386003016
 31
0.0
 70
   160
  1
<>
 71
     2
 42
-1.0
  3
SLDDIMSTYLE3
100
AcDbAlignedDimension
 13
8.3296495104
 23
7.8271584504
 33
0.0
 14
8.4546495104
 24
7.8271584504
 34
0.0
100
AcDbRotatedDimension
  0
LINE
  5
1A6
330
1F
100
AcDbEntity
  8
0
  6
Continuous
 62
     7
370
    15
100
AcDbLine
 10
14.5011165616
 20
3.8590497185
 30
0.0
 11
14.5895049082
 21
3.9100752249
 31
0.0
  0
LINE
  5
1A7
330
1F
100
AcDbEntity
  8
0
  6
Continuous
 62
     7
370
    15
100
AcDbLine
 10
14.5011165616
 20
3.8590497185
 30
0.0
 11
14.5011165616
 21
7.1252130463
 31
0.0
  0
LINE
  5
1A8
330
1F
100
AcDbEntity
  8
0
  6
Continuous
 62
     7
370
    15
100
AcDbLine
 10
14.5011165616
 20
7.1252130463
 30
0.0
 11
14.5895049082
 21
7.1762385527
 31
0.0
  0
LINE
  5
1A9
330
1F
100
AcDbEntity
  8
0
  6
Continuous
 62
     7
370
    15
100
AcDbLine
 10
14.5895049082
 20
3.9100752249
 30
0.0
 11
14.5895049082
 21
7.1762385527
 31
0.0
  0
LINE
  5
1AA
330
1F
100
AcDbEntity
  8
0
  6
Continuous
 62
     7
370
    15
100
AcDbLine
 10
14.5011165616
 20
7.1252130463
 30
0.0
 11
12.2914079684
 21
8.4008506645
 31
0.0
  0
LINE
  5
1AB
330
1F
100
AcDbEntity
  8
0
  6
Continuous
 62
     7
370
    15
100
AcDbLine
 10
12.2914079684
 20
8.4008506645
 30
0.0
 11
12.379796315
 21
8.4518761708
 31
0.0
  0
LINE
  5
1AC
330
1F
100
AcDbEntity
  8
0
  6
Continuous
 62
     7
370
    15
100
AcDbLine
 10
14.5895049082
 20
7.1762385527
 30
0.0
 11
12.379796315
 21
8.4518761708
 31
0.0
  0
LINE
  5
1AD
330
1F
100
AcDbEntity
  8
0
  6
Continuous
 62
     7
370
    15
100
AcDbLine
 10
12.2914079684
 20
5.1346873366
 30
0.0
 11
14.5011165616
 21
3.8590497185
 31
0.0
  0
LINE
  5
1AE
330
1F
100
AcDbEntity
  8
0
  6
Continuous
 62
     7
370
    15
100
AcDbLine
 10
12.2914079684
 20
8.4008506645
 30
0.0
 11
12.2914079684
 21
5.1346873366
 31
0.0
  0
LWPOLYLINE
  5
1AF
330
1F
100
AcDbEntity
  8
0
  6
Continuous
 62
     7
370
    15
100
AcDbPolyline
 90
      117
 70
   128
 43
0.0
 10
12.5452593043
 20
8.0762993677
 10
12.5451462693
 20
8.0811832017
 10
12.5448074915
 20
8.0861832228
 10
12.5442439628
 20
8.091284727
 10
12.5434573424
 20
8.096472625
 10
12.5424499346
 20
8.1017321736
 10
12.5412246918
 20
8.1070472976
 10
12.5397852114
 20
8.1124029862
 10
12.538135713
 20
8.1177831513
 10
12.5362810384
 20
8.1231723033
 10
12.5342266226
 20
8.1285543709
 10
12.5319784968
 20
8.1339136569
 10
12.529543253
 20
8.1392343801
 10
12.5269280308
 20
8.1445011617
 10
12.5241405062
 20
8.1496983132
 10
12.5211888543
 20
8.1548108159
 10
12.5180817299
 20
8.1598233745
 10
12.5148282502
 20
8.1647216239
 10
12.5114379564
 20
8.1694909547
 10
12.5079207936
 20
8.1741172426
 10
12.5042870776
 20
8.1785873469
 10
12.500547467
 20
8.182887929
 10
12.4967129308
 20
8.1870064294
 10
12.4927947162
 20
8.1909306067
 10
12.4888043164
 20
8.1946490357
 10
12.4847534356
 20
8.198150888
 10
12.4806539556
 20
8.2014257117
 10
12.4765179007
 20
8.20446417
 10
12.4723574031
 20
8.2072571035
 10
12.4681846648
 20
8.2097965102
 10
12.4640119298
 20
8.2120748427
 10
12.4598514323
 20
8.2140855174
 10
12.4557153774
 20
8.2158224464
 10
12.4516158957
 20
8.2172807826
 10
12.4475650173
 20
8.2184559764
 10
12.4435746135
 20
8.2193447672
 10
12.4396564033
 20
8.2199444616
 10
12.4358218659
 20
8.2202532232
 10
12.4320822535
 20
8.2202703046
 10
12.4284485397
 20
8.2199955982
 10
12.4249313741
 20
8.2194301417
 10
12.4215410819
 20
8.2185751599
 10
12.4182875998
 20
8.2174332995
 10
12.4151804753
 20
8.2160081505
 10
12.4122288283
 20
8.2143035497
 10
12.4094412989
 20
8.2123248084
 10
12.4068260799
 20
8.2100774962
 10
12.4043908329
 20
8.2075684475
 10
12.4021427071
 20
8.2048047922
 10
12.4000882946
 20
8.2017947008
 10
12.3982336167
 20
8.1985469124
 10
12.3965841183
 20
8.1950712176
 10
12.3951446411
 20
8.1913775158
 10
12.3939193983
 20
8.1874770271
 10
12.3929119873
 20
8.1833806086
 10
12.3921253636
 20
8.1791009251
 10
12.3915618414
 20
8.1746500536
 10
12.3912230669
 20
8.1700411751
 10
12.3911100254
 20
8.1652878522
 10
12.3912230669
 20
8.160404254
 10
12.3915618414
 20
8.1554042348
 10
12.3921253636
 20
8.1503027343
 10
12.3929119873
 20
8.145114595
 10
12.3939193983
 20
8.139855284
 10
12.3951446411
 20
8.1345399205
 10
12.3965841183
 20
8.1291844732
 10
12.3982336167
 20
8.1238040686
 10
12.4000882946
 20
8.1184151543
 10
12.4021427071
 20
8.1130330886
 10
12.4043908329
 20
8.1076738026
 10
12.4068260799
 20
8.102352838
 10
12.4094412989
 20
8.0970862978
 10
12.4122288283
 20
8.091888904
 10
12.4151804753
 20
8.0867766436
 10
12.4182875998
 20
8.0817638455
 10
12.4215410819
 20
8.0768658342
 10
12.4249313741
 20
8.0720965043
 10
12.4284485397
 20
8.0674699753
 10
12.4320822535
 20
8.0629998723
 10
12.4358218659
 20
8.0586995286
 10
12.4396564033
 20
8.0545810275
 10
12.4435746135
 20
8.0506568528
 10
12.4475650173
 20
8.0469384214
 10
12.4516158957
 20
8.0434365705
 10
12.4557153774
 20
8.0401615064
 10
12.4598514323
 20
8.0371230481
 10
12.4640119298
 20
8.0343301146
 10
12.4681846648
 20
8.0317907098
 10
12.4723574031
 20
8.0295123754
 10
12.4765179007
 20
8.0275017007
 10
12.4806539556
 20
8.0257647717
 10
12.4847534356
 20
8.0243066759
 10
12.4888043164
 20
8.0231314808
 10
12.4927947162
 20
8.0222426923
 10
12.4967129308
 20
8.0216429953
 10
12.500547467
 20
8.0213342344
 10
12.5042870776
 20
8.0213169145
 10
12.5079207936
 20
8.0215916196
 10
12.5114379564
 20
8.0221573173
 10
12.5148282502
 20
8.0230122982
 10
12.5180817299
 20
8.0241539205
 10
12.5211888543
 20
8.025579309
 10
12.5241405062
 20
8.0272836675
 10
12.5269280308
 20
8.0292626511
 10
12.529543253
 20
8.0315097219
 10
12.5319784968
 20
8.034019012
 10
12.5342266226
 20
8.0367826672
 10
12.5362810384
 20
8.0397927568
 10
12.538135713
 20
8.0430403076
 10
12.5397852114
 20
8.0465162418
 10
12.5412246918
 20
8.0502097023
 10
12.5424499346
 20
8.0541104305
 10
12.5434573424
 20
8.0582066113
 10
12.5442439628
 20
8.0624865362
 10
12.5448074915
 20
8.066937404
 10
12.5451462693
 20
8.0715462807
 10
12.5452593043
 20
8.0762993677
  0
LWPOLYLINE
  5
1B0
330
1F
100
AcDbEntity
  8
0
  6
Continuous
 62
     7
370
    15
100
AcDbPolyline
 90
      117
 70
   128
 43
0.0
 10
14.4014145825
 20
7.0047637339
 10
14.401301541
 20
7.0096475717
 10
14.4009628313
 20
7.0146475535
 10
14.4003992831
 20
7.0197490689
 10
14.3996125558
 20
7.0249370286
 10
14.3986051383
 20
7.0301965828
 10
14.3973799343
 20
7.0355116843
 10
14.3959404701
 20
7.0408673637
 10
14.3942911013
 20
7.0462474539
 10
14.3924363911
 20
7.0516366265
 10
14.3903819397
 20
7.0570187146
 10
14.388133762
 20
7.0623780306
 10
14.3856984956
 20
7.0676987669
 10
14.3830833998
 20
7.0729654755
 10
14.3802957342
 20
7.0781627083
 10
14.3773442103
 20
7.0832751372
 10
14.3742371247
 20
7.0882876733
 10
14.3709836037
 20
7.0931859466
 10
14.3675931884
 20
7.0979553475
 10
14.3640760422
 20
7.1025816258
 10
14.3604423285
 20
7.1070517289
 10
14.3567028327
 20
7.1113522447
 10
14.3528681332
 20
7.1154708393
 10
14.3489500527
 20
7.1193949392
 10
14.3449595841
 20
7.123113408
 10
14.3409087576
 20
7.1266152289
 10
14.3368091884
 20
7.129890104
 10
14.332673114
 20
7.1329285736
 10
14.3285127721
 20
7.1357214173
 10
14.3243399852
 20
7.138260852
 10
14.3201671983
 20
7.1405392145
 10
14.3160066489
 20
7.1425499191
 10
14.3118705745
 20
7.1442868594
 10
14.3077712128
 20
7.1457451264
 10
14.3037203862
 20
7.1469202902
 10
14.2997299176
 20
7.1478091184
 10
14.2958116297
 20
7.1484088577
 10
14.2919771376
 20
7.1487175932
 10
14.2882376419
 20
7.1487346072
 10
14.2846039281
 20
7.1484599008
 10
14.2810865745
 20
7.1478945528
 10
14.2776963666
 20
7.1470395223
 10
14.2744428456
 20
7.1458976844
 10
14.27133576
 20
7.1444725129
 10
14.2683840287
 20
7.1427679608
 10
14.2655965706
 20
7.1407891783
 10
14.2629814748
 20
7.1385417951
 10
14.2605462083
 20
7.1360327576
 10
14.2582980307
 20
7.1332691322
 10
14.2562435792
 20
7.1302590633
 10
14.254388869
 20
7.1270112935
 10
14.2527395002
 20
7.123535524
 10
14.251300036
 20
7.1198418146
 10
14.2500746246
 20
7.1159414232
 10
14.2490672071
 20
7.1118450085
 10
14.2482806872
 20
7.1075652651
 10
14.247717139
 20
7.1031144085
 10
14.2473784294
 20
7.0985054926
 10
14.2472653879
 20
7.0937521698
 10
14.2473784294
 20
7.0888685715
 10
14.247717139
 20
7.0838685897
 10
14.2482806872
 20
7.0787670743
 10
14.2490672071
 20
7.0735789948
 10
14.2500746246
 20
7.0683196801
 10
14.251300036
 20
7.0630042194
 10
14.2527395002
 20
7.0576487796
 10
14.254388869
 20
7.0522684498
 10
14.2562435792
 20
7.0468795167
 10
14.2582980307
 20
7.0414974286
 10
14.2605462083
 20
7.0361381127
 10
14.2629814748
 20
7.0308171368
 10
14.2655965706
 20
7.0255506677
 10
14.2683840287
 20
7.0203533151
 10
14.27133576
 20
7.015241006
 10
14.2744428456
 20
7.0102282304
 10
14.2776963666
 20
7.0053301966
 10
14.2810865745
 20
7.0005609154
 10
14.2846039281
 20
6.9959342779
 10
14.2882376419
 20
6.9914641748
 10
14.2919771376
 20
6.9871638985
 10
14.2958116297
 20
6.9830454236
 10
14.2997299176
 20
6.979121204
 10
14.3037203862
 20
6.9754027352
 10
14.3077712128
 20
6.9719009143
 10
14.3118705745
 20
6.9686259194
 10
14.3160066489
 20
6.9655874499
 10
14.3201671983
 20
6.9627944864
 10
14.3243399852
 20
6.9602550517
 10
14.3285127721
 20
6.9579766892
 10
14.332673114
 20
6.9559661043
 10
14.3368091884
 20
6.9542291641
 10
14.3409087576
 20
6.9527710168
 10
14.3449595841
 20
6.951595853
 10
14.3489500527
 20
6.9507070248
 10
14.3528681332
 20
6.9501074052
 10
14.3567028327
 20
6.94979855
 10
14.3604423285
 20
6.9497812965
 10
14.3640760422
 20
6.9500560029
 10
14.3675931884
 20
6.9506217101
 10
14.3709836037
 20
6.9514766209
 10
14.3742371247
 20
6.9526182193
 10
14.3773442103
 20
6.9540436303
 10
14.3802957342
 20
6.9557480627
 10
14.3830833998
 20
6.9577269649
 10
14.3856984956
 20
6.9599741086
 10
14.388133762
 20
6.9624833856
 10
14.3903819397
 20
6.965247011
 10
14.3924363911
 20
6.9682570799
 10
14.3942911013
 20
6.9715046102
 10
14.3959404701
 20
6.9749806192
 10
14.3973799343
 20
6.978674089
 10
14.3986051383
 20
6.9825748397
 10
14.3996125558
 20
6.9866710149
 10
14.4003992831
 20
6.9909508781
 10
14.4009628313
 20
6.9954017347
 10
14.401301541
 20
7.0000106506
 10
14.4014145825
 20
7.0047637339
  0
LWPOLYLINE
  5
1B1
330
1F
100
AcDbEntity
  8
0
  6
Continuous
 62
     7
370
    15
100
AcDbPolyline
 90
      117
 70
   128
 43
0.0
 10
14.4014145825
 20
4.0946123661
 10
14.401301541
 20
4.0994961439
 10
14.4009628313
 20
4.1044960658
 10
14.4003992831
 20
4.1095975214
 10
14.3996125558
 20
4.1147856607
 10
14.3986051383
 20
4.1200450353
 10
14.3973799343
 20
4.1253602566
 10
14.3959404701
 20
4.130715876
 10
14.3942911013
 20
4.1360960262
 10
14.3924363911
 20
4.141485079
 10
14.3903819397
 20
4.1468671671
 10
14.388133762
 20
4.152226513
 10
14.3856984956
 20
4.1575473391
 10
14.3830833998
 20
4.1628139879
 10
14.3802957342
 20
4.1680112806
 10
14.3773442103
 20
4.1731236196
 10
14.3742371247
 20
4.1781362156
 10
14.3709836037
 20
4.1830343991
 10
14.3675931884
 20
4.1878037701
 10
14.3640760422
 20
4.192430228
 10
14.3604423285
 20
4.1969003011
 10
14.3567028327
 20
4.201200787
 10
14.3528681332
 20
4.2053192918
 10
14.3489500527
 20
4.2092433917
 10
14.3449595841
 20
4.2129619204
 10
14.3409087576
 20
4.2164637114
 10
14.3368091884
 20
4.2197387062
 10
14.332673114
 20
4.2227771458
 10
14.3285127721
 20
4.2255700794
 10
14.3243399852
 20
4.2281095141
 10
14.3201671983
 20
4.2303878766
 10
14.3160066489
 20
4.2323984914
 10
14.3118705745
 20
4.2341354616
 10
14.3077712128
 20
4.2355936088
 10
14.3037203862
 20
4.2367688025
 10
14.2997299176
 20
4.2376575709
 10
14.2958116297
 20
4.2382573102
 10
14.2919771376
 20
4.2385661355
 10
14.2882376419
 20
4.2385831794
 10
14.2846039281
 20
4.238308503
 10
14.2810865745
 20
4.2377429754
 10
14.2776963666
 20
4.2368879748
 10
14.2744428456
 20
4.2357462267
 10
14.27133576
 20
4.2343209954
 10
14.2683840287
 20
4.232616533
 10
14.2655965706
 20
4.2306376907
 10
14.2629814748
 20
4.2283903673
 10
14.2605462083
 20
4.22588124
 10
14.2582980307
 20
4.2231175847
 10
14.2562435792
 20
4.2201075158
 10
14.254388869
 20
4.2168598658
 10
14.2527395002
 20
4.2133840363
 10
14.251300036
 20
4.2096903869
 10
14.2500746246
 20
4.2057898757
 10
14.2490672071
 20
4.2016936406
 10
14.2482806872
 20
4.1974137176
 10
14.247717139
 20
4.1929629209
 10
14.2473784294
 20
4.1883540649
 10
14.2472653879
 20
4.1836008019
 10
14.2473784294
 20
4.178717024
 10
14.247717139
 20
4.1737171021
 10
14.2482806872
 20
4.1686155867
 10
14.2490672071
 20
4.163427627
 10
14.2500746246
 20
4.1581682524
 10
14.251300036
 20
4.1528528515
 10
14.2527395002
 20
4.1474972321
 10
14.254388869
 20
4.1421171418
 10
14.2562435792
 20
4.1367280291
 10
14.2582980307
 20
4.131345941
 10
14.2605462083
 20
4.125986625
 10
14.2629814748
 20
4.120665769
 10
14.2655965706
 20
4.1153991202
 10
14.2683840287
 20
4.1102019472
 10
14.27133576
 20
4.1050895184
 10
14.2744428456
 20
4.1000769224
 10
14.2776963666
 20
4.095178709
 10
14.2810865745
 20
4.0904094877
 10
14.2846039281
 20
4.08578291
 10
14.2882376419
 20
4.081312807
 10
14.2919771376
 20
4.077012351
 10
14.2958116297
 20
4.072893936
 10
14.2997299176
 20
4.0689697164
 10
14.3037203862
 20
4.0652511877
 10
14.3077712128
 20
4.0617494267
 10
14.3118705745
 20
4.0584745515
 10
14.3160066489
 20
4.055436082
 10
14.3201671983
 20
4.0526430587
 10
14.3243399852
 20
4.0501036239
 10
14.3285127721
 20
4.0478252615
 10
14.332673114
 20
4.0458147365
 10
14.3368091884
 20
4.0440777962
 10
14.3409087576
 20
4.0426195292
 10
14.3449595841
 20
4.0414443056
 10
14.3489500527
 20
4.0405555372
 10
14.3528681332
 20
4.0399559176
 10
14.3567028327
 20
4.0396470025
 10
14.3604423285
 20
4.0396299287
 10
14.3640760422
 20
4.039904635
 10
14.3675931884
 20
4.0404702824
 10
14.3709836037
 20
4.0413251333
 10
14.3742371247
 20
4.0424669113
 10
14.3773442103
 20
4.0438921427
 10
14.3802957342
 20
4.0455966948
 10
14.3830833998
 20
4.0475754174
 10
14.3856984956
 20
4.0498227408
 10
14.388133762
 20
4.052331898
 10
14.3903819397
 20
4.0550955234
 10
14.3924363911
 20
4.0581055923
 10
14.3942911013
 20
4.0613533022
 10
14.3959404701
 20
4.0648290718
 10
14.3973799343
 20
4.0685227212
 10
14.3986051383
 20
4.072423412
 10
14.3996125558
 20
4.0765196471
 10
14.4003992831
 20
4.0807993905
 10
14.4009628313
 20
4.085250247
 10
14.401301541
 20
4.0898591031
 10
14.4014145825
 20
4.0946123661
  0
LWPOLYLINE
  5
1B2
330
1F
100
AcDbEntity
  8
0
  6
Continuous
 62
     7
370
    15
100
AcDbPolyline
 90
      117
 70
   128
 43
0.0
 10
12.5452593043
 20
5.1661479999
 10
12.5451462693
 20
5.171031774
 10
12.5448074915
 20
5.1760317352
 10
12.5442439628
 20
5.1811331795
 10
12.5434573424
 20
5.1863212571
 10
12.5424499346
 20
5.1915806261
 10
12.5412246918
 20
5.1968958698
 10
12.5397852114
 20
5.2022514986
 10
12.538135713
 20
5.2076317236
 10
12.5362810384
 20
5.2130207558
 10
12.5342266226
 20
5.2184028234
 10
12.5319784968
 20
5.2237621393
 10
12.529543253
 20
5.2290829524
 10
12.5269280308
 20
5.2343496741
 10
12.5241405062
 20
5.2395468854
 10
12.5211888543
 20
5.2446592983
 10
12.5180817299
 20
5.2496719168
 10
12.5148282502
 20
5.2545700764
 10
12.5114379564
 20
5.2593393773
 10
12.5079207936
 20
5.2639658448
 10
12.5042870776
 20
5.2684359192
 10
12.500547467
 20
5.2727364714
 10
12.4967129308
 20
5.2768548819
 10
12.4927947162
 20
5.2807790592
 10
12.4888043164
 20
5.2844975481
 10
12.4847534356
 20
5.2879993705
 10
12.4806539556
 20
5.2912743139
 10
12.4765179007
 20
5.2943127422
 10
12.4723574031
 20
5.2971057656
 10
12.4681846648
 20
5.2996451722
 10
12.4640119298
 20
5.3019235048
 10
12.4598514323
 20
5.3039340896
 10
12.4557153774
 20
5.3056710486
 10
12.4516158957
 20
5.3071292651
 10
12.4475650173
 20
5.3083044887
 10
12.4435746135
 20
5.3091932197
 10
12.4396564033
 20
5.3097929141
 10
12.4358218659
 20
5.3101017656
 10
12.4320822535
 20
5.3101188769
 10
12.4284485397
 20
5.3098442004
 10
12.4249313741
 20
5.3092785643
 10
12.4215410819
 20
5.3084236124
 10
12.4182875998
 20
5.3072818418
 10
12.4151804753
 20
5.3058566329
 10
12.4122288283
 20
5.3041521219
 10
12.4094412989
 20
5.3021733208
 10
12.4068260799
 20
5.2999260685
 10
12.4043908329
 20
5.2974169299
 10
12.4021427071
 20
5.2946532448
 10
12.4000882946
 20
5.2916431533
 10
12.3982336167
 20
5.2883954847
 10
12.3965841183
 20
5.28491973
 10
12.3951446411
 20
5.2812260881
 10
12.3939193983
 20
5.2773254796
 10
12.3929119873
 20
5.2732292408
 10
12.3921253636
 20
5.2689493776
 10
12.3915618414
 20
5.264498566
 10
12.3912230669
 20
5.2598897473
 10
12.3911100254
 20
5.2551364844
 10
12.3912230669
 20
5.2502527065
 10
12.3915618414
 20
5.2452527472
 10
12.3921253636
 20
5.2401512467
 10
12.3929119873
 20
5.2349632271
 10
12.3939193983
 20
5.2297038563
 10
12.3951446411
 20
5.2243885527
 10
12.3965841183
 20
5.2190329257
 10
12.3982336167
 20
5.2136527607
 10
12.4000882946
 20
5.2082636667
 10
12.4021427071
 20
5.202881601
 10
12.4043908329
 20
5.197522315
 10
12.4068260799
 20
5.1922014701
 10
12.4094412989
 20
5.1869347503
 10
12.4122288283
 20
5.1817375361
 10
12.4151804753
 20
5.176625156
 10
12.4182875998
 20
5.1716125375
 10
12.4215410819
 20
5.1667143465
 10
12.4249313741
 20
5.1619450766
 10
12.4284485397
 20
5.1573186074
 10
12.4320822535
 20
5.1528485044
 10
12.4358218659
 20
5.1485479811
 10
12.4396564033
 20
5.1444295399
 10
12.4435746135
 20
5.1405053651
 10
12.4475650173
 20
5.136786874
 10
12.4516158957
 20
5.1332850829
 10
12.4557153774
 20
5.1300101386
 10
12.4598514323
 20
5.1269716803
 10
12.4640119298
 20
5.1241786869
 10
12.4681846648
 20
5.1216392821
 10
12.4723574031
 20
5.1193609477
 10
12.4765179007
 20
5.1173503329
 10
12.4806539556
 20
5.1156134038
 10
12.4847534356
 20
5.1141551883
 10
12.4888043164
 20
5.1129799333
 10
12.4927947162
 20
5.1120912047
 10
12.4967129308
 20
5.1114915077
 10
12.500547467
 20
5.1111826869
 10
12.5042870776
 20
5.1111655467
 10
12.5079207936
 20
5.1114402518
 10
12.5114379564
 20
5.1120058896
 10
12.5148282502
 20
5.1128608106
 10
12.5180817299
 20
5.1140026125
 10
12.5211888543
 20
5.1154278214
 10
12.5241405062
 20
5.1171322996
 10
12.5269280308
 20
5.1191111036
 10
12.529543253
 20
5.121358354
 10
12.5319784968
 20
5.1238675244
 10
12.5342266226
 20
5.1266311796
 10
12.5362810384
 20
5.1296412692
 10
12.538135713
 20
5.1328889996
 10
12.5397852114
 20
5.1363646943
 10
12.5412246918
 20
5.1400583344
 10
12.5424499346
 20
5.1439590028
 10
12.5434573424
 20
5.1480552435
 10
12.5442439628
 20
5.1523350486
 10
12.5448074915
 20
5.1567859164
 10
12.5451462693
 20
5.1613947332
 10
12.5452593043
 20
5.1661479999
  0
ARC
  5
1B3
330
1F
100
AcDbEntity
  8
0
  6
Continuous
 62
     7
370
    15
100
AcDbCircle
 10
14.509175094
 20
7.1559610763
 30
0.0
 40
0.1744749323278071
100
AcDbArc
 50
188.5504070248
 51
231.4442152352
  0
ARC
  5
1B4
330
1F
100
AcDbEntity
  8
0
  6
Continuous
 62
     7
370
    15
100
AcDbCircle
 10
12.6530203246
 20
8.2274970218
 30
0.0
 40
0.1744755110215274
100
AcDbArc
 50
188.5504757676
 51
231.4441095164
  0
ARC
  5
1B5
330
1F
100
AcDbEntity
  8
0
  6
Continuous
 62
     7
370
    15
100
AcDbCircle
 10
14.5091752447
 20
4.2458096897
 30
0.0
 40
0.174475105300515
100
AcDbArc
 50
188.550451931
 51
231.4441972163
  0
ARC
  5
1B6
330
1F
100
AcDbEntity
  8
0
  6
Continuous
 62
     7
370
    15
100
AcDbCircle
 10
12.6530204753
 20
5.3173456353
 30
0.0
 40
0.1744756839989563
100
AcDbArc
 50
188.5505206741
 51
231.4440914971
  0
ENDSEC
  0
SECTION
  2
OBJECTS
  0
DICTIONARY
  5
C
330
0
100
AcDbDictionary
281
     1
  3
ACAD_GROUP
350
D
  3
ACAD_LAYOUT
350
1A
  3
ACAD_MLINESTYLE
350
17
  3
ACAD_PLOTSETTINGS
350
19
  3
ACAD_PLOTSTYLENAME
350
E
  3
ACAD_SCALELIST
350
47
  0
DICTIONARY
  5
D
102
{ACAD_REACTORS
330
C
102
}
330
C
100
AcDbDictionary
281
     1
  0
DICTIONARY
  5
1A
102
{ACAD_REACTORS
330
C
102
}
330
C
100
AcDbDictionary
281
     1
  3
Layout1
350
1E
  3
Layout2
350
26
  3
Model
350
22
  0
DICTIONARY
  5
17
102
{ACAD_REACTORS
330
C
102
}
330
C
100
AcDbDictionary
281
     1
  3
Standard
350
18
  0
DICTIONARY
  5
19
102
{ACAD_REACTORS
330
C
102
}
330
C
100
AcDbDictionary
281
     1
  0
ACDBDICTIONARYWDFLT
  5
E
102
{ACAD_REACTORS
330
C
102
}
330
C
100
AcDbDictionary
281
     1
  3
Normal
350
F
100
AcDbDictionaryWithDefault
340
F
  0
DICTIONARY
  5
47
102
{ACAD_REACTORS
330
C
102
}
330
C
100
AcDbDictionary
281
     1
  3
A0
350
48
  3
A1
350
49
  3
A2
350
4A
  3
A3
350
4B
  3
A4
350
4C
  3
A5
350
4D
  3
A6
350
4E
  3
A7
350
4F
  3
A8
350
50
  3
A9
350
51
  3
B0
350
52
  3
B1
350
53
  3
B2
350
54
  3
B3
350
55
  3
B4
350
56
  3
B5
350
57
  3
B6
350
58
  3
B7
350
59
  3
B8
350
5A
  3
B9
350
5B
  3
C0
350
5C
  3
C1
350
5D
  3
C2
350
5E
  3
C3
350
5F
  3
C4
350
60
  3
C5
350
61
  3
C6
350
62
  3
C7
350
63
  3
C8
350
64
  3
C9
350
65
  3
D0
350
66
  3
D1
350
67
  3
D2
350
68
  0
LAYOUT
  5
1E
102
{ACAD_REACTORS
330
1A
102
}
330
1A
100
AcDbPlotSettings
  1

  2
none_device
  4

  6

 40
0.0
 41
0.0
 42
0.0
 43
0.0
 44
0.0
 45
0.0
 46
0.0
 47
0.0
 48
0.0
 49
0.0
140
0.0
141
0.0
142
1.0
143
1.0
 70
   688
 72
     0
 73
     0
 74
     5
  7

 75
    16
147
1.0
148
0.0
149
0.0
100
AcDbLayout
  1
Layout1
 70
     1
 71
     1
 10
0.0
 20
0.0
 11
12.0
 21
9.0
 12
0.0
 22
0.0
 32
0.0
 14
1.0000000000E+20
 24
1.0000000000E+20
 34
1.0000000000E+20
 15
-1.0000000000E+20
 25
-1.0000000000E+20
 35
-1.0000000000E+20
146
0.0
 13
0.0
 23
0.0
 33
0.0
 16
1.0
 26
0.0
 36
0.0
 17
0.0
 27
1.0
 37
0.0
 76
     0
330
1B
  0
LAYOUT
  5
26
102
{ACAD_REACTORS
330
1A
102
}
330
1A
100
AcDbPlotSettings
  1

  2
none_device
  4

  6

 40
0.0
 41
0.0
 42
0.0
 43
0.0
 44
0.0
 45
0.0
 46
0.0
 47
0.0
 48
0.0
 49
0.0
140
0.0
141
0.0
142
1.0
143
1.0
 70
   688
 72
     0
 73
     0
 74
     5
  7

 75
    16
147
1.0
148
0.0
149
0.0
100
AcDbLayout
  1
Layout2
 70
     1
 71
     2
 10
0.0
 20
0.0
 11
0.0
 21
0.0
 12
0.0
 22
0.0
 32
0.0
 14
0.0
 24
0.0
 34
0.0
 15
0.0
 25
0.0
 35
0.0
146
0.0
 13
0.0
 23
0.0
 33
0.0
 16
1.0
 26
0.0
 36
0.0
 17
0.0
 27
1.0
 37
0.0
 76
     0
330
23
  0
LAYOUT
  5
22
102
{ACAD_REACTORS
330
1A
102
}
330
1A
100
AcDbPlotSettings
  1

  2
none_device
  4
Letter_(8.50_x_11.00_Inches)
  6

 40
6.35
 41
6.35
 42
6.35000508
 43
6.35000508
 44
215.9
 45
279.4
 46
0.0
 47
0.0
 48
0.0
 49
0.0
140
0.0
141
0.0
142
1.0
143
1.0
 70
  1712
 72
     0
 73
     0
 74
     0
  7

 75
     0
147
1.0
148
0.0
149
0.0
100
AcDbLayout
  1
Model
 70
     1
 71
     0
 10
0.0
 20
0.0
 11
17.0
 21
11.0
 12
0.0
 22
0.0
 32
0.0
 14
0.0
 24
0.0
 34
0.0
 15
17.0
 25
11.0
 35
0.0
146
0.0
 13
0.0
 23
0.0
 33
0.0
 16
1.0
 26
0.0
 36
0.0
 17
0.0
 27
1.0
 37
0.0
 76
     0
330
1F
331
29
  0
MLINESTYLE
  5
18
102
{ACAD_REACTORS
330
17
102
}
330
17
100
AcDbMlineStyle
  2
Standard
 70
     0
  3

 62
   256
 51
90.0
 52
90.0
 71
     2
 49
0.5
 62
   256
  6
BYLAYER
 49
-0.5
 62
   256
  6
BYLAYER
  0
ACDBPLACEHOLDER
  5
F
102
{ACAD_REACTORS
330
E
102
}
330
E
  0
SCALE
  5
48
102
{ACAD_REACTORS
330
47
102
}
330
47
100
AcDbScale
 70
     0
300
1:1
140
1.0
141
1.0
290
     1
  0
SCALE
  5
49
102
{ACAD_REACTORS
330
47
102
}
330
47
100
AcDbScale
 70
     0
300
1:2
140
1.0
141
2.0
290
     0
  0
SCALE
  5
4A
102
{ACAD_REACTORS
330
47
102
}
330
47
100
AcDbScale
 70
     0
300
1:4
140
1.0
141
4.0
290
     0
  0
SCALE
  5
4B
102
{ACAD_REACTORS
330
47
102
}
330
47
100
AcDbScale
 70
     0
300
1:5
140
1.0
141
5.0
290
     0
  0
SCALE
  5
4C
102
{ACAD_REACTORS
330
47
102
}
330
47
100
AcDbScale
 70
     0
300
1:8
140
1.0
141
8.0
290
     0
  0
SCALE
  5
4D
102
{ACAD_REACTORS
330
47
102
}
330
47
100
AcDbScale
 70
     0
300
1:10
140
1.0
141
10.0
290
     0
  0
SCALE
  5
4E
102
{ACAD_REACTORS
330
47
102
}
330
47
100
AcDbScale
 70
     0
300
1:16
140
1.0
141
16.0
290
     0
  0
SCALE
  5
4F
102
{ACAD_REACTORS
330
47
102
}
330
47
100
AcDbScale
 70
     0
300
1:20
140
1.0
141
20.0
290
     0
  0
SCALE
  5
50
102
{ACAD_REACTORS
330
47
102
}
330
47
100
AcDbScale
 70
     0
300
1:30
140
1.0
141
30.0
290
     0
  0
SCALE
  5
51
102
{ACAD_REACTORS
330
47
102
}
330
47
100
AcDbScale
 70
     0
300
1:40
140
1.0
141
40.0
290
     0
  0
SCALE
  5
52
102
{ACAD_REACTORS
330
47
102
}
330
47
100
AcDbScale
 70
     0
300
1:50
140
1.0
141
50.0
290
     0
  0
SCALE
  5
53
102
{ACAD_REACTORS
330
47
102
}
330
47
100
AcDbScale
 70
     0
300
1:100
140
1.0
141
100.0
290
     0
  0
SCALE
  5
54
102
{ACAD_REACTORS
330
47
102
}
330
47
100
AcDbScale
 70
     0
300
2:1
140
2.0
141
1.0
290
     0
  0
SCALE
  5
55
102
{ACAD_REACTORS
330
47
102
}
330
47
100
AcDbScale
 70
     0
300
4:1
140
4.0
141
1.0
290
     0
  0
SCALE
  5
56
102
{ACAD_REACTORS
330
47
102
}
330
47
100
AcDbScale
 70
     0
300
8:1
140
8.0
141
1.0
290
     0
  0
SCALE
  5
57
102
{ACAD_REACTORS
330
47
102
}
330
47
100
AcDbScale
 70
     0
300
10:1
140
10.0
141
1.0
290
     0
  0
SCALE
  5
58
102
{ACAD_REACTORS
330
47
102
}
330
47
100
AcDbScale
 70
     0
300
100:1
140
100.0
141
1.0
290
     0
  0
SCALE
  5
59
102
{ACAD_REACTORS
330
47
102
}
330
47
100
AcDbScale
 70
     0
300
1/128" = 1'-0"
140
0.0078125
141
12.0
290
     0
  0
SCALE
  5
5A
102
{ACAD_REACTORS
330
47
102
}
330
47
100
AcDbScale
 70
     0
300
1/64" = 1'-0"
140
0.015625
141
12.0
290
     0
  0
SCALE
  5
5B
102
{ACAD_REACTORS
330
47
102
}
330
47
100
AcDbScale
 70
     0
300
1/32" = 1'-0"
140
0.03125
141
12.0
290
     0
  0
SCALE
  5
5C
102
{ACAD_REACTORS
330
47
102
}
330
47
100
AcDbScale
 70
     0
300
1/16" = 1'-0"
140
0.0625
141
12.0
290
     0
  0
SCALE
  5
5D
102
{ACAD_REACTORS
330
47
102
}
330
47
100
AcDbScale
 70
     0
300
3/32" = 1'-0"
140
0.09375
141
12.0
290
     0
  0
SCALE
  5
5E
102
{ACAD_REACTORS
330
47
102
}
330
47
100
AcDbScale
 70
     0
300
1/8" = 1'-0"
140
0.125
141
12.0
290
     0
  0
SCALE
  5
5F
102
{ACAD_REACTORS
330
47
102
}
330
47
100
AcDbScale
 70
     0
300
3/16" = 1'-0"
140
0.1875
141
12.0
290
     0
  0
SCALE
  5
60
102
{ACAD_REACTORS
330
47
102
}
330
47
100
AcDbScale
 70
     0
300
1/4" = 1'-0"
140
0.25
141
12.0
290
     0
  0
SCALE
  5
61
102
{ACAD_REACTORS
330
47
102
}
330
47
100
AcDbScale
 70
     0
300
3/8" = 1'-0"
140
0.375
141
12.0
290
     0
  0
SCALE
  5
62
102
{ACAD_REACTORS
330
47
102
}
330
47
100
AcDbScale
 70
     0
300
1/2" = 1'-0"
140
0.5
141
12.0
290
     0
  0
SCALE
  5
63
102
{ACAD_REACTORS
330
47
102
}
330
47
100
AcDbScale
 70
     0
300
3/4" = 1'-0"
140
0.75
141
12.0
290
     0
  0
SCALE
  5
64
102
{ACAD_REACTORS
330
47
102
}
330
47
100
AcDbScale
 70
     0
300
1" = 1'-0"
140
1.0
141
12.0
290
     0
  0
SCALE
  5
65
102
{ACAD_REACTORS
330
47
102
}
330
47
100
AcDbScale
 70
     0
300
1-1/2" = 1'-0"
140
1.5
141
12.0
290
     0
  0
SCALE
  5
66
102
{ACAD_REACTORS
330
47
102
}
330
47
100
AcDbScale
 70
     0
300
3" = 1'-0"
140
3.0
141
12.0
290
     0
  0
SCALE
  5
67
102
{ACAD_REACTORS
330
47
102
}
330
47
100
AcDbScale
 70
     0
300
6" = 1'-0"
140
6.0
141
12.0
290
     0
  0
SCALE
  5
68
102
{ACAD_REACTORS
330
47
102
}
330
47
100
AcDbScale
 70
     0
300
1'-0" = 1'-0"
140
12.0
141
12.0
290
     0
  0
ENDSEC
  0
EOF
