  0
SECTION
  2
HEADER
  9
$ACADVER
  1
AC1015
  9
$ACADMAINTVER
 70
     6
  9
$DWGCODEPAGE
  3
ANSI_1252
  9
$INSBASE
 10
0.0
 20
0.0
 30
0.0
  9
$EXTMIN
 10
0.0
 20
0.0
 30
0.0
  9
$EXTMAX
 10
34.0
 20
22.0
 30
0.0
  9
$LIMMIN
 10
0.0
 20
0.0
  9
$LIMMAX
 10
34.0
 20
22.0
  9
$ORTHOMODE
 70
     0
  9
$REGENMODE
 70
     1
  9
$FILLMODE
 70
     1
  9
$QTEXTMODE
 70
     0
  9
$MIRRTEXT
 70
     1
  9
$LTSCALE
 40
2.0
  9
$ATTMODE
 70
     1
  9
$TEXTSIZE
 40
0.25
  9
$TRACEWID
 40
0.05
  9
$TEXTSTYLE
  7
Standard
  9
$CLAYER
  8
0
  9
$CELTYPE
  6
ByLayer
  9
$CECOLOR
 62
   256
  9
$CELTSCALE
 40
1.0
  9
$DISPSILH
 70
     0
  9
$DIMSCALE
 40
1.0
  9
$DIMASZ
 40
0.188
  9
$DIMEXO
 40
0.1
  9
$DIMDLI
 40
0.38
  9
$DIMRND
 40
0.0
  9
$DIMDLE
 40
0.0
  9
$DIMEXE
 40
0.25
  9
$DIMTP
 40
0.0
  9
$DIMTM
 40
0.0
  9
$DIMTXT
 40
0.25
  9
$DIMCEN
 40
0.09
  9
$DIMTSZ
 40
0.0
  9
$DIMTOL
 70
     0
  9
$DIMLIM
 70
     0
  9
$DIMTIH
 70
     1
  9
$DIMTOH
 70
     1
  9
$DIMSE1
 70
     0
  9
$DIMSE2
 70
     0
  9
$DIMTAD
 70
     0
  9
$DIMZIN
 70
     0
  9
$DIMBLK
  1

  9
$DIMASO
 70
     1
  9
$DIMSHO
 70
     1
  9
$DIMPOST
  1

  9
$DIMAPOST
  1

  9
$DIMALT
 70
     0
  9
$DIMALTD
 70
     2
  9
$DIMALTF
 40
25.4
  9
$DIMLFAC
 40
1.0
  9
$DIMTOFL
 70
     0
  9
$DIMTVP
 40
0.0
  9
$DIMTIX
 70
     0
  9
$DIMSOXD
 70
     0
  9
$DIMSAH
 70
     0
  9
$DIMBLK1
  1

  9
$DIMBLK2
  1

  9
$DIMSTYLE
  2
Standard
  9
$DIMCLRD
 70
     0
  9
$DIMCLRE
 70
     0
  9
$DIMCLRT
 70
     0
  9
$DIMTFAC
 40
1.0
  9
$DIMGAP
 40
0.12
  9
$DIMJUST
 70
     0
  9
$DIMSD1
 70
     0
  9
$DIMSD2
 70
     0
  9
$DIMTOLJ
 70
     1
  9
$DIMTZIN
 70
     0
  9
$DIMALTZ
 70
     0
  9
$DIMALTTZ
 70
     0
  9
$DIMUPT
 70
     0
  9
$DIMDEC
 70
     2
  9
$DIMTDEC
 70
     2
  9
$DIMALTU
 70
     2
  9
$DIMALTTD
 70
     2
  9
$DIMTXSTY
  7
Standard
  9
$DIMAUNIT
 70
     0
  9
$DIMADEC
 70
     2
  9
$DIMALTRND
 40
0.0
  9
$DIMAZIN
 70
     0
  9
$DIMDSEP
 70
    46
  9
$DIMATFIT
 70
     3
  9
$DIMFRAC
 70
     0
  9
$DIMLDRBLK
  1

  9
$DIMLUNIT
 70
     2
  9
$DIMLWD
 70
    -2
  9
$DIMLWE
 70
    -2
  9
$DIMTMOVE
 70
     0
  9
$LUNITS
 70
     2
  9
$LUPREC
 70
     2
  9
$SKETCHINC
 40
0.1
  9
$FILLETRAD
 40
0.5
  9
$AUNITS
 70
     0
  9
$AUPREC
 70
     2
  9
$MENU
  1
.
  9
$ELEVATION
 40
0.0
  9
$PELEVATION
 40
0.0
  9
$THICKNESS
 40
0.0
  9
$LIMCHECK
 70
     0
  9
$CHAMFERA
 40
0.0
  9
$CHAMFERB
 40
0.0
  9
$CHAMFERC
 40
0.0
  9
$CHAMFERD
 40
0.0
  9
$SKPOLY
 70
     0
  9
$TDCREATE
 40
2457571.491856551
  9
$TDUCREATE
 40
2457571.658523218
  9
$TDUPDATE
 40
2457571.491857801
  9
$TDUUPDATE
 40
2457571.658524468
  9
$TDINDWG
 40
0.0000000116
  9
$TDUSRTIMER
 40
0.0000000116
  9
$USRTIMER
 70
     1
  9
$ANGBASE
 50
0.0
  9
$ANGDIR
 70
     0
  9
$PDMODE
 70
     0
  9
$PDSIZE
 40
-1.0
  9
$PLINEWID
 40
0.0
  9
$SPLFRAME
 70
     0
  9
$SPLINETYPE
 70
     6
  9
$SPLINESEGS
 70
     8
  9
$HANDSEED
  5
181
  9
$SURFTAB1
 70
     6
  9
$SURFTAB2
 70
     6
  9
$SURFTYPE
 70
     6
  9
$SURFU
 70
     6
  9
$SURFV
 70
     6
  9
$UCSBASE
  2

  9
$UCSNAME
  2

  9
$UCSORG
 10
0.0
 20
0.0
 30
0.0
  9
$UCSXDIR
 10
1.0
 20
0.0
 30
0.0
  9
$UCSYDIR
 10
0.0
 20
1.0
 30
0.0
  9
$UCSORTHOREF
  2

  9
$UCSORTHOVIEW
 70
     0
  9
$UCSORGTOP
 10
0.0
 20
0.0
 30
0.0
  9
$UCSORGBOTTOM
 10
0.0
 20
0.0
 30
0.0
  9
$UCSORGLEFT
 10
0.0
 20
0.0
 30
0.0
  9
$UCSORGRIGHT
 10
0.0
 20
0.0
 30
0.0
  9
$UCSORGFRONT
 10
0.0
 20
0.0
 30
0.0
  9
$UCSORGBACK
 10
0.0
 20
0.0
 30
0.0
  9
$PUCSBASE
  2

  9
$PUCSNAME
  2

  9
$PUCSORG
 10
0.0
 20
0.0
 30
0.0
  9
$PUCSXDIR
 10
1.0
 20
0.0
 30
0.0
  9
$PUCSYDIR
 10
0.0
 20
1.0
 30
0.0
  9
$PUCSORTHOREF
  2

  9
$PUCSORTHOVIEW
 70
     0
  9
$PUCSORGTOP
 10
0.0
 20
0.0
 30
0.0
  9
$PUCSORGBOTTOM
 10
0.0
 20
0.0
 30
0.0
  9
$PUCSORGLEFT
 10
0.0
 20
0.0
 30
0.0
  9
$PUCSORGRIGHT
 10
0.0
 20
0.0
 30
0.0
  9
$PUCSORGFRONT
 10
0.0
 20
0.0
 30
0.0
  9
$PUCSORGBACK
 10
0.0
 20
0.0
 30
0.0
  9
$USERI1
 70
     0
  9
$USERI2
 70
     0
  9
$USERI3
 70
     0
  9
$USERI4
 70
     0
  9
$USERI5
 70
     0
  9
$USERR1
 40
0.0
  9
$USERR2
 40
0.0
  9
$USERR3
 40
0.0
  9
$USERR4
 40
0.0
  9
$USERR5
 40
0.0
  9
$WORLDVIEW
 70
     1
  9
$SHADEDGE
 70
     3
  9
$SHADEDIF
 70
    70
  9
$TILEMODE
 70
     1
  9
$MAXACTVP
 70
    64
  9
$PINSBASE
 10
0.0
 20
0.0
 30
0.0
  9
$PLIMCHECK
 70
     0
  9
$PEXTMIN
 10
1.0000000000E+20
 20
1.0000000000E+20
 30
1.0000000000E+20
  9
$PEXTMAX
 10
-1.0000000000E+20
 20
-1.0000000000E+20
 30
-1.0000000000E+20
  9
$PLIMMIN
 10
0.0
 20
0.0
  9
$PLIMMAX
 10
12.0
 20
9.0
  9
$UNITMODE
 70
     0
  9
$VISRETAIN
 70
     1
  9
$PLINEGEN
 70
     0
  9
$PSLTSCALE
 70
     1
  9
$TREEDEPTH
 70
  3020
  9
$CMLSTYLE
  2
Standard
  9
$CMLJUST
 70
     0
  9
$CMLSCALE
 40
1.0
  9
$PROXYGRAPHICS
 70
     1
  9
$MEASUREMENT
 70
     0
  9
$CELWEIGHT
370
    -1
  9
$ENDCAPS
280
     0
  9
$JOINSTYLE
280
     0
  9
$LWDISPLAY
290
     1
  9
$INSUNITS
 70
     1
  9
$HYPERLINKBASE
  1

  9
$STYLESHEET
  1

  9
$XEDIT
290
     1
  9
$CEPSNTYPE
380
     0
  9
$PSTYLEMODE
290
     1
  9
$FINGERPRINTGUID
  2
{423C6CC8-B435-4718-AAEC-1C34B1368EC0}
  9
$VERSIONGUID
  2
{FAEB1C32-E019-11D5-929B-00C0DF256EC4}
  9
$EXTNAMES
290
     1
  9
$PSVPSCALE
 40
0.0
  9
$OLESTARTUP
290
     0
  0
ENDSEC
  0
SECTION
  2
CLASSES
  0
CLASS
  1
ACDBDICTIONARYWDFLT
  2
AcDbDictionaryWithDefault
  3
ObjectDBX Classes
 90
        0
280
     0
281
     0
  0
CLASS
  1
VISUALSTYLE
  2
AcDbVisualStyle
  3
ObjectDBX Classes
 90
     4095
280
     0
281
     0
  0
CLASS
  1
MATERIAL
  2
AcDbMaterial
  3
ObjectDBX Classes
 90
     1153
280
     0
281
     0
  0
CLASS
  1
SCALE
  2
AcDbScale
  3
ObjectDBX Classes
 90
     1153
280
     0
281
     0
  0
CLASS
  1
TABLESTYLE
  2
AcDbTableStyle
  3
ObjectDBX Classes
 90
     4095
280
     0
281
     0
  0
CLASS
  1
MLEADERSTYLE
  2
AcDbMLeaderStyle
  3
ACDB_MLEADERSTYLE_CLASS
 90
     4095
280
     0
281
     0
  0
CLASS
  1
SUN
  2
AcDbSun
  3
SCENEOE
 90
     1153
280
     0
281
     0
  0
CLASS
  1
ACDBPLACEHOLDER
  2
AcDbPlaceHolder
  3
ObjectDBX Classes
 90
        0
280
     0
281
     0
  0
CLASS
  1
LAYOUT
  2
AcDbLayout
  3
ObjectDBX Classes
 90
        0
280
     0
281
     0
  0
ENDSEC
  0
SECTION
  2
TABLES
  0
TABLE
  2
VPORT
  5
8
330
0
100
AcDbSymbolTable
 70
     1
  0
VPORT
  5
29
330
8
100
AcDbSymbolTableRecord
100
AcDbViewportTableRecord
  2
*Active
 70
     0
 10
0.0
 20
0.0
 11
1.0
 21
1.0
 12
17.0
 22
11.0
 13
0.0
 23
0.0
 14
0.5
 24
0.5
 15
0.5
 25
0.5
 16
0.0
 26
0.0
 36
1.0
 17
0.0
 27
0.0
 37
0.0
 40
22.0
 41
1.5454545455
 42
50.0
 43
0.0
 44
0.0
 50
0.0
 51
0.0
 71
     0
 72
  2000
 73
     1
 74
     3
 75
     0
 76
     0
 77
     0
 78
     0
281
     0
 65
     1
110
0.0
120
0.0
130
0.0
111
1.0
121
0.0
131
0.0
112
0.0
122
1.0
132
0.0
 79
     0
146
0.0
  0
ENDTAB
  0
TABLE
  2
LTYPE
  5
5
330
0
100
AcDbSymbolTable
 70
     6
  0
LTYPE
  5
14
330
5
100
AcDbSymbolTableRecord
100
AcDbLinetypeTableRecord
  2
ByBlock
 70
     0
  3

 72
    65
 73
     0
 40
0.0
  0
LTYPE
  5
15
330
5
100
AcDbSymbolTableRecord
100
AcDbLinetypeTableRecord
  2
ByLayer
 70
     0
  3

 72
    65
 73
     0
 40
0.0
  0
LTYPE
  5
16
330
5
100
AcDbSymbolTableRecord
100
AcDbLinetypeTableRecord
  2
Continuous
 70
     0
  3
Solid line
 72
    65
 73
     0
 40
0.0
  0
LTYPE
  5
6E
330
5
100
AcDbSymbolTableRecord
100
AcDbLinetypeTableRecord
  2
HIDDEN
 70
     0
  3
Hidden __ __ __ __ __ __ __ __ __ __ __ __ __ __
 72
    65
 73
     2
 40
0.075
 49
0.05
 74
     0
 49
-0.025
 74
     0
  0
LTYPE
  5
6F
330
5
100
AcDbSymbolTableRecord
100
AcDbLinetypeTableRecord
  2
PHANTOM
 70
     0
  3
Phantom ______  __  __  ______  __  __  ______
 72
    65
 73
     6
 40
0.5
 49
0.25
 74
     0
 49
-0.05
 74
     0
 49
0.05
 74
     0
 49
-0.05
 74
     0
 49
0.05
 74
     0
 49
-0.05
 74
     0
  0
LTYPE
  5
70
330
5
100
AcDbSymbolTableRecord
100
AcDbLinetypeTableRecord
  2
CENTER
 70
     0
  3
Center ____ _ ____ _ ____ _ ____ _ ____ _ ____
 72
    65
 73
     4
 40
0.4
 49
0.25
 74
     0
 49
-0.05
 74
     0
 49
0.05
 74
     0
 49
-0.05
 74
     0
  0
LTYPE
  5
71
330
5
100
AcDbSymbolTableRecord
100
AcDbLinetypeTableRecord
  2
CENTERX2
 70
     0
  3
Center (2x) ________  __  ________  __  _____
 72
    65
 73
     4
 40
0.8
 49
0.5
 74
     0
 49
-0.1
 74
     0
 49
0.1
 74
     0
 49
-0.1
 74
     0
  0
LTYPE
  5
72
330
5
100
AcDbSymbolTableRecord
100
AcDbLinetypeTableRecord
  2
DOT2
 70
     0
  3
Dot (.5x) ........................................
 72
    65
 73
     2
 40
0.025
 49
0.0
 74
     0
 49
-0.025
 74
     0
  0
ENDTAB
  0
TABLE
  2
LAYER
  5
2
330
0
100
AcDbSymbolTable
 70
     1
  0
LAYER
  5
10
330
2
100
AcDbSymbolTableRecord
100
AcDbLayerTableRecord
  2
0
 70
     0
 62
     7
  6
Continuous
370
    -3
390
F
  0
ENDTAB
  0
TABLE
  2
STYLE
  5
3
330
0
100
AcDbSymbolTable
 70
     4
  0
STYLE
  5
11
330
3
100
AcDbSymbolTableRecord
100
AcDbTextStyleTableRecord
  2
Standard
 70
     0
 40
0.0
 41
1.0
 50
0.0
 71
     0
 42
0.25
  3
txt
  4

  0
STYLE
  5
BA
330
3
100
AcDbSymbolTableRecord
100
AcDbTextStyleTableRecord
  2
SLDTEXTSTYLE0
 70
     0
 40
0.0
 41
0.605
 50
0.0
 71
     0
 42
0.25
  3
TXT
  4

  0
STYLE
  5
BC
330
3
100
AcDbSymbolTableRecord
100
AcDbTextStyleTableRecord
  2
SLDTEXTSTYLE1
 70
     0
 40
0.0
 41
0.75
 50
0.0
 71
     0
 42
0.25
  3
TXT
  4

  0
STYLE
  5
C0
330
3
100
AcDbSymbolTableRecord
100
AcDbTextStyleTableRecord
  2
SLDTEXTSTYLE2
 70
     0
 40
0.0
 41
0.7
 50
0.0
 71
     0
 42
0.25
  3
TXT
  4

  0
ENDTAB
  0
TABLE
  2
VIEW
  5
6
330
0
100
AcDbSymbolTable
 70
     0
  0
ENDTAB
  0
TABLE
  2
UCS
  5
7
330
0
100
AcDbSymbolTable
 70
     0
  0
ENDTAB
  0
TABLE
  2
APPID
  5
9
330
0
100
AcDbSymbolTable
 70
     1
  0
APPID
  5
12
330
9
100
AcDbSymbolTableRecord
100
AcDbRegAppTableRecord
  2
ACAD
 70
     0
  0
ENDTAB
  0
TABLE
  2
DIMSTYLE
  5
A
330
0
100
AcDbSymbolTable
 70
     5
100
AcDbDimStyleTable
  0
DIMSTYLE
105
27
330
A
100
AcDbSymbolTableRecord
100
AcDbDimStyleTableRecord
  2
Standard
 70
     0
178
     0
340
11
  0
DIMSTYLE
105
DF
102
{ACAD_REACTORS
330
DE
102
}
330
A
100
AcDbSymbolTableRecord
100
AcDbDimStyleTableRecord
  2
SLDDIMSTYLE0
 70
     0
 41
0.188
 44
0.0
 45
0.000000001
 78
    12
 79
     3
140
0.25
141
0.0
147
0.0625
148
0.000000001
170
     1
173
     1
178
     0
271
     2
272
     2
274
     3
276
     2
284
    12
340
BA
  0
DIMSTYLE
105
F1
102
{ACAD_REACTORS
330
F0
330
103
330
116
330
128
102
}
330
A
100
AcDbSymbolTableRecord
100
AcDbDimStyleTableRecord
  2
SLDDIMSTYLE1
 70
     0
 41
0.188
 44
0.0
 45
0.000000001
 78
    12
 79
     3
140
0.25
147
0.0625
148
0.000000001
170
     1
173
     1
178
     0
271
     2
272
     2
274
     3
276
     2
284
    12
340
BA
  0
DIMSTYLE
105
13C
102
{ACAD_REACTORS
330
13B
330
150
102
}
330
A
100
AcDbSymbolTableRecord
100
AcDbDimStyleTableRecord
  2
SLDDIMSTYLE2
 70
     0
 41
0.188
 44
0.0
 45
0.000000001
 78
    12
 79
     3
140
0.25
147
0.0625
148
0.000000001
170
     1
172
     1
173
     1
178
     0
271
     2
272
     2
274
     3
276
     2
284
    12
289
     0
340
BA
  0
DIMSTYLE
105
16E
102
{ACAD_REACTORS
330
16D
102
}
330
A
100
AcDbSymbolTableRecord
100
AcDbDimStyleTableRecord
  2
SLDDIMSTYLE3
 70
     0
 41
0.188
 44
0.0
 45
0.000000001
 78
    12
 79
     3
140
0.25
147
0.0625
148
0.000000001
170
     1
172
     1
173
     1
178
     0
271
     3
272
     2
274
     3
276
     2
284
    12
289
     0
340
BA
  0
ENDTAB
  0
TABLE
  2
BLOCK_RECORD
  5
1
330
0
100
AcDbSymbolTable
 70
    10
  0
BLOCK_RECORD
  5
1F
330
1
100
AcDbSymbolTableRecord
100
AcDbBlockTableRecord
  2
*Model_Space
340
22
  0
BLOCK_RECORD
  5
1B
330
1
100
AcDbSymbolTableRecord
100
AcDbBlockTableRecord
  2
*Paper_Space
340
1E
  0
BLOCK_RECORD
  5
23
330
1
100
AcDbSymbolTableRecord
100
AcDbBlockTableRecord
  2
*Paper_Space0
340
26
  0
BLOCK_RECORD
  5
C5
330
1
100
AcDbSymbolTableRecord
100
AcDbBlockTableRecord
  2
SW_NOTE_0
340
0
102
{BLKREFS
331
CD
102
}
  0
BLOCK_RECORD
  5
E0
330
1
100
AcDbSymbolTableRecord
100
AcDbBlockTableRecord
  2
_D
340
0
  0
BLOCK_RECORD
  5
F2
330
1
100
AcDbSymbolTableRecord
100
AcDbBlockTableRecord
  2
_D_1
340
0
  0
BLOCK_RECORD
  5
104
330
1
100
AcDbSymbolTableRecord
100
AcDbBlockTableRecord
  2
_D_2
340
0
  0
BLOCK_RECORD
  5
117
330
1
100
AcDbSymbolTableRecord
100
AcDbBlockTableRecord
  2
_D_3
340
0
  0
BLOCK_RECORD
  5
129
330
1
100
AcDbSymbolTableRecord
100
AcDbBlockTableRecord
  2
_D_4
340
0
  0
BLOCK_RECORD
  5
13D
330
1
100
AcDbSymbolTableRecord
100
AcDbBlockTableRecord
  2
_D_5
340
0
  0
BLOCK_RECORD
  5
151
330
1
100
AcDbSymbolTableRecord
100
AcDbBlockTableRecord
  2
_D_6
340
0
  0
BLOCK_RECORD
  5
16F
330
1
100
AcDbSymbolTableRecord
100
AcDbBlockTableRecord
  2
_D_7
340
0
  0
ENDTAB
  0
ENDSEC
  0
SECTION
  2
BLOCKS
  0
BLOCK
  5
20
330
1F
100
AcDbEntity
  8
0
100
AcDbBlockBegin
  2
*Model_Space
 70
     0
 10
0.0
 20
0.0
 30
0.0
  3
*Model_Space
  1

  0
ENDBLK
  5
21
330
1F
100
AcDbEntity
  8
0
100
AcDbBlockEnd
  0
BLOCK
  5
1C
330
1B
100
AcDbEntity
 67
     1
  8
0
100
AcDbBlockBegin
  2
*Paper_Space
 70
     0
 10
0.0
 20
0.0
 30
0.0
  3
*Paper_Space
  1

  0
ENDBLK
  5
1D
330
1B
100
AcDbEntity
 67
     1
  8
0
100
AcDbBlockEnd
  0
BLOCK
  5
24
330
23
100
AcDbEntity
  8
0
100
AcDbBlockBegin
  2
*Paper_Space0
 70
     0
 10
0.0
 20
0.0
 30
0.0
  3
*Paper_Space0
  1

  0
ENDBLK
  5
25
330
23
100
AcDbEntity
  8
0
100
AcDbBlockEnd
  0
BLOCK
  5
C6
330
C5
100
AcDbEntity
  8
0
100
AcDbBlockBegin
  2
SW_NOTE_0
 70
     0
 10
0.0
 20
0.0
 30
0.0
  3
SW_NOTE_0
  1

  0
MTEXT
  5
C8
330
C5
100
AcDbEntity
  8
0
  6
Continuous
 62
     0
370
     0
100
AcDbMText
 10
0.0
 20
0.1546881288
 30
0.0
 40
0.12
 41
0.0
 71
     1
 72
     1
  1
THIS MATERIAL IS OWNED BY THE ALLIED MOULDED
  7
SLDTEXTSTYLE1
 73
     1
 44
1.0
  0
MTEXT
  5
C9
330
C5
100
AcDbEntity
  8
0
  6
Continuous
 62
     0
370
     0
100
AcDbMText
 10
0.0
 20
-0.0440520204
 30
0.0
 40
0.12
 41
0.0
 71
     1
 72
     1
  1
PRODUCTS COMPANY, IS DISCLOSED IN CONFIDENCE,
  7
SLDTEXTSTYLE1
 73
     1
 44
1.0
  0
MTEXT
  5
CA
330
C5
100
AcDbEntity
  8
0
  6
Continuous
 62
     0
370
     0
100
AcDbMText
 10
0.0
 20
-0.2427921695
 30
0.0
 40
0.12
 41
0.0
 71
     1
 72
     1
  1
AND IS NOT TO BE REPRODUCED OR DISTRIBUTED
  7
SLDTEXTSTYLE1
 73
     1
 44
1.0
  0
MTEXT
  5
CB
330
C5
100
AcDbEntity
  8
0
  6
Continuous
 62
     0
370
     0
100
AcDbMText
 10
0.0
 20
-0.4415323186
 30
0.0
 40
0.12
 41
0.0
 71
     1
 72
     1
  1
WITHOUT PRIOR WRITTEN PERMISSION FROM
  7
SLDTEXTSTYLE1
 73
     1
 44
1.0
  0
MTEXT
  5
CC
330
C5
100
AcDbEntity
  8
0
  6
Continuous
 62
     0
370
     0
100
AcDbMText
 10
0.0
 20
-0.6402724678
 30
0.0
 40
0.12
 41
0.0
 71
     1
 72
     1
  1
ALLIED MOULDED PRODUCTS.
  7
SLDTEXTSTYLE1
 73
     1
 44
1.0
  0
ENDBLK
  5
C7
330
C5
100
AcDbEntity
  8
0
100
AcDbBlockEnd
  0
BLOCK
  5
E1
330
E0
100
AcDbEntity
  8
0
100
AcDbBlockBegin
  2
_D
 70
     0
 10
0.0
 20
0.0
 30
0.0
  3
_D
  1

  0
SOLID
  5
E3
330
E0
100
AcDbEntity
  8
0
  6
Continuous
 62
   136
370
     0
100
AcDbTrace
 10
7.7461845158
 20
8.9229886611
 30
0.0
 11
7.846467958
 21
8.7590153974
 31
0.0
 12
7.9045355975
 22
8.8140440195
 32
0.0
 13
7.9045355975
 23
8.8140440195
 33
0.0
  0
LINE
  5
E4
330
E0
100
AcDbEntity
  8
0
  6
Continuous
 62
   136
370
     0
100
AcDbLine
 10
9.9614059104
 20
8.3599983273
 30
0.0
 11
9.8754684131
 21
8.3599983273
 31
0.0
  0
LINE
  5
E5
330
E0
100
AcDbEntity
  8
0
  6
Continuous
 62
   136
370
     0
100
AcDbLine
 10
9.8754684131
 20
8.3599983273
 30
0.0
 11
9.8754684131
 21
7.9763177729
 31
0.0
  0
LINE
  5
E6
330
E0
100
AcDbEntity
  8
0
  6
Continuous
 62
   136
370
     0
100
AcDbLine
 10
9.8754684131
 20
7.9763177729
 30
0.0
 11
9.9614059104
 21
7.9763177729
 31
0.0
  0
LINE
  5
E7
330
E0
100
AcDbEntity
  8
0
  6
Continuous
 62
   136
370
     0
100
AcDbLine
 10
10.6298087156
 20
8.3599983273
 30
0.0
 11
10.7157462129
 21
8.3599983273
 31
0.0
  0
LINE
  5
E8
330
E0
100
AcDbEntity
  8
0
  6
Continuous
 62
   136
370
     0
100
AcDbLine
 10
10.7157462129
 20
8.3599983273
 30
0.0
 11
10.7157462129
 21
7.9763177729
 31
0.0
  0
LINE
  5
E9
330
E0
100
AcDbEntity
  8
0
  6
Continuous
 62
   136
370
     0
100
AcDbLine
 10
10.7157462129
 20
7.9763177729
 30
0.0
 11
10.6298087156
 21
7.9763177729
 31
0.0
  0
LINE
  5
EA
330
E0
100
AcDbEntity
  8
0
  6
Continuous
 62
   136
370
     0
100
AcDbLine
 10
7.7461845158
 20
8.9229886611
 30
0.0
 11
8.6976038686
 21
7.9190261081
 31
0.0
  0
LINE
  5
EB
330
E0
100
AcDbEntity
  8
0
  6
Continuous
 62
   136
370
     0
100
AcDbLine
 10
8.6976038686
 20
7.9190261081
 30
0.0
 11
8.9476038686
 21
7.9190261081
 31
0.0
  0
MTEXT
  5
EC
330
E0
100
AcDbEntity
  8
0
  6
Continuous
 62
   136
370
     0
100
AcDbMText
 10
8.9476038686
 20
8.2978902721
 30
0.0
 40
0.25
 41
0.0
 71
     1
 72
     1
  1
%%c
  7
SLDTEXTSTYLE0
 73
     1
 44
1.0
  0
MTEXT
  5
ED
330
E0
100
AcDbEntity
  8
0
  6
Continuous
 62
   136
370
     0
100
AcDbMText
 10
9.3121003879
 20
8.298584717
 30
0.0
 40
0.25
 41
0.0
 71
     1
 72
     1
  1
.25
  7
SLDTEXTSTYLE0
 73
     1
 44
1.0
  0
MTEXT
  5
EE
330
E0
100
AcDbEntity
  8
0
  6
Continuous
 62
   136
370
     0
100
AcDbMText
 10
9.9614059104
 20
8.298584717
 30
0.0
 40
0.25
 41
0.0
 71
     1
 72
     1
  1
6.35
  7
SLDTEXTSTYLE0
 73
     1
 44
1.0
  0
MTEXT
  5
EF
330
E0
100
AcDbEntity
  8
0
  6
Continuous
 62
   136
370
     0
100
AcDbMText
 10
9.6932202085
 20
7.8576124978
 30
0.0
 40
0.25
 41
0.0
 71
     1
 72
     1
  1
4x
  7
SLDTEXTSTYLE0
 73
     1
 44
1.0
  0
ENDBLK
  5
E2
330
E0
100
AcDbEntity
  8
0
100
AcDbBlockEnd
  0
BLOCK
  5
F3
330
F2
100
AcDbEntity
  8
0
100
AcDbBlockBegin
  2
_D_1
 70
     0
 10
0.0
 20
0.0
 30
0.0
  3
_D_1
  1

  0
SOLID
  5
F5
330
F2
100
AcDbEntity
  8
0
  6
Continuous
 62
   136
370
     0
100
AcDbTrace
 10
17.8442495379
 20
8.7637193477
 30
0.0
 11
17.8842495379
 21
8.9517193477
 31
0.0
 12
17.8042495379
 22
8.9517193477
 32
0.0
 13
17.8042495379
 23
8.9517193477
 33
0.0
  0
SOLID
  5
F6
330
F2
100
AcDbEntity
  8
0
  6
Continuous
 62
   136
370
     0
100
AcDbTrace
 10
17.8442495379
 20
15.5137193477
 30
0.0
 11
17.8042495379
 21
15.3257193477
 31
0.0
 12
17.8842495379
 22
15.3257193477
 32
0.0
 13
17.8842495379
 23
15.3257193477
 33
0.0
  0
LINE
  5
F7
330
F2
100
AcDbEntity
  8
0
  6
Continuous
 62
   136
370
     0
100
AcDbLine
 10
17.6532773707
 20
12.9533894799
 30
0.0
 11
17.5673398734
 21
12.9533894799
 31
0.0
  0
LINE
  5
F8
330
F2
100
AcDbEntity
  8
0
  6
Continuous
 62
   136
370
     0
100
AcDbLine
 10
17.5673398734
 20
12.9533894799
 30
0.0
 11
17.5673398734
 21
12.5697089256
 31
0.0
  0
LINE
  5
F9
330
F2
100
AcDbEntity
  8
0
  6
Continuous
 62
   136
370
     0
100
AcDbLine
 10
17.5673398734
 20
12.5697089256
 30
0.0
 11
17.6532773707
 21
12.5697089256
 31
0.0
  0
LINE
  5
FA
330
F2
100
AcDbEntity
  8
0
  6
Continuous
 62
   136
370
     0
100
AcDbLine
 10
18.7036245836
 20
12.9533894799
 30
0.0
 11
18.7895620809
 21
12.9533894799
 31
0.0
  0
LINE
  5
FB
330
F2
100
AcDbEntity
  8
0
  6
Continuous
 62
   136
370
     0
100
AcDbLine
 10
18.7895620809
 20
12.9533894799
 30
0.0
 11
18.7895620809
 21
12.5697089256
 31
0.0
  0
LINE
  5
FC
330
F2
100
AcDbEntity
  8
0
  6
Continuous
 62
   136
370
     0
100
AcDbLine
 10
18.7895620809
 20
12.5697089256
 30
0.0
 11
18.7036245836
 21
12.5697089256
 31
0.0
  0
LINE
  5
FD
330
F2
100
AcDbEntity
  8
0
  6
Continuous
 62
   136
370
     0
100
AcDbLine
 10
14.1422022938
 20
8.7637193477
 30
0.0
 11
18.0942495379
 21
8.7637193477
 31
0.0
  0
LINE
  5
FE
330
F2
100
AcDbEntity
  8
0
  6
Continuous
 62
   136
370
     0
100
AcDbLine
 10
14.1422022938
 20
15.5137193477
 30
0.0
 11
18.0942495379
 21
15.5137193477
 31
0.0
  0
LINE
  5
FF
330
F2
100
AcDbEntity
  8
0
  6
Continuous
 62
   136
370
     0
100
AcDbLine
 10
17.8442495379
 20
8.7637193477
 30
0.0
 11
17.8442495379
 21
12.5124172607
 31
0.0
  0
LINE
  5
100
330
F2
100
AcDbEntity
  8
0
  6
Continuous
 62
   136
370
     0
100
AcDbLine
 10
17.8442495379
 20
15.5137193477
 30
0.0
 11
17.8442495379
 21
13.0106811447
 31
0.0
  0
MTEXT
  5
101
330
F2
100
AcDbEntity
  8
0
  6
Continuous
 62
   136
370
     0
100
AcDbMText
 10
16.812999571
 20
12.8919758697
 30
0.0
 40
0.25
 41
0.0
 71
     1
 72
     1
  1
6.75
  7
SLDTEXTSTYLE0
 73
     1
 44
1.0
  0
MTEXT
  5
102
330
F2
100
AcDbEntity
  8
0
  6
Continuous
 62
   136
370
     0
100
AcDbMText
 10
17.6532773707
 20
12.8919758697
 30
0.0
 40
0.25
 41
0.0
 71
     1
 72
     1
  1
171.45
  7
SLDTEXTSTYLE0
 73
     1
 44
1.0
  0
ENDBLK
  5
F4
330
F2
100
AcDbEntity
  8
0
100
AcDbBlockEnd
  0
BLOCK
  5
105
330
104
100
AcDbEntity
  8
0
100
AcDbBlockBegin
  2
_D_2
 70
     0
 10
0.0
 20
0.0
 30
0.0
  3
_D_2
  1

  0
SOLID
  5
107
330
104
100
AcDbEntity
  8
0
  6
Continuous
 62
   136
370
     0
100
AcDbTrace
 10
15.4820448135
 20
15.2637193477
 30
0.0
 11
15.4420448135
 21
15.0757193477
 31
0.0
 12
15.5220448135
 22
15.0757193477
 32
0.0
 13
15.5220448135
 23
15.0757193477
 33
0.0
  0
SOLID
  5
108
330
104
100
AcDbEntity
  8
0
  6
Continuous
 62
   136
370
     0
100
AcDbTrace
 10
15.4820448135
 20
9.0137193477
 30
0.0
 11
15.5220448135
 21
9.2017193477
 31
0.0
 12
15.4420448135
 22
9.2017193477
 32
0.0
 13
15.4420448135
 23
9.2017193477
 33
0.0
  0
LINE
  5
109
330
104
100
AcDbEntity
  8
0
  6
Continuous
 62
   136
370
     0
100
AcDbLine
 10
15.2910726463
 20
12.5223999021
 30
0.0
 11
15.205135149
 21
12.5223999021
 31
0.0
  0
LINE
  5
10A
330
104
100
AcDbEntity
  8
0
  6
Continuous
 62
   136
370
     0
100
AcDbLine
 10
15.205135149
 20
12.5223999021
 30
0.0
 11
15.205135149
 21
12.1387193477
 31
0.0
  0
LINE
  5
10B
330
104
100
AcDbEntity
  8
0
  6
Continuous
 62
   136
370
     0
100
AcDbLine
 10
15.205135149
 20
12.1387193477
 30
0.0
 11
15.2910726463
 21
12.1387193477
 31
0.0
  0
LINE
  5
10C
330
104
100
AcDbEntity
  8
0
  6
Continuous
 62
   136
370
     0
100
AcDbLine
 10
16.3414198592
 20
12.5223999021
 30
0.0
 11
16.4273573565
 21
12.5223999021
 31
0.0
  0
LINE
  5
10D
330
104
100
AcDbEntity
  8
0
  6
Continuous
 62
   136
370
     0
100
AcDbLine
 10
16.4273573565
 20
12.5223999021
 30
0.0
 11
16.4273573565
 21
12.1387193477
 31
0.0
  0
LINE
  5
10E
330
104
100
AcDbEntity
  8
0
  6
Continuous
 62
   136
370
     0
100
AcDbLine
 10
16.4273573565
 20
12.1387193477
 30
0.0
 11
16.3414198592
 21
12.1387193477
 31
0.0
  0
LINE
  5
10F
330
104
100
AcDbEntity
  8
0
  6
Continuous
 62
   136
370
     0
100
AcDbLine
 10
14.0092022938
 20
15.2637193477
 30
0.0
 11
15.7320448135
 21
15.2637193477
 31
0.0
  0
LINE
  5
110
330
104
100
AcDbEntity
  8
0
  6
Continuous
 62
   136
370
     0
100
AcDbLine
 10
14.0092022938
 20
9.0137193477
 30
0.0
 11
15.7320448135
 21
9.0137193477
 31
0.0
  0
LINE
  5
111
330
104
100
AcDbEntity
  8
0
  6
Continuous
 62
   136
370
     0
100
AcDbLine
 10
15.4820448135
 20
15.2637193477
 30
0.0
 11
15.4820448135
 21
12.5796915669
 31
0.0
  0
LINE
  5
112
330
104
100
AcDbEntity
  8
0
  6
Continuous
 62
   136
370
     0
100
AcDbLine
 10
15.4820448135
 20
9.0137193477
 30
0.0
 11
15.4820448135
 21
11.6977471285
 31
0.0
  0
MTEXT
  5
113
330
104
100
AcDbEntity
  8
0
  6
Continuous
 62
   136
370
     0
100
AcDbMText
 10
14.4507948466
 20
12.4609862918
 30
0.0
 40
0.25
 41
0.0
 71
     1
 72
     1
  1
6.25
  7
SLDTEXTSTYLE0
 73
     1
 44
1.0
  0
MTEXT
  5
114
330
104
100
AcDbEntity
  8
0
  6
Continuous
 62
   136
370
     0
100
AcDbMText
 10
15.2910726463
 20
12.4609862918
 30
0.0
 40
0.25
 41
0.0
 71
     1
 72
     1
  1
158.75
  7
SLDTEXTSTYLE0
 73
     1
 44
1.0
  0
MTEXT
  5
115
330
104
100
AcDbEntity
  8
0
  6
Continuous
 62
   136
370
     0
100
AcDbMText
 10
15.300621196
 20
12.0200140726
 30
0.0
 40
0.25
 41
0.0
 71
     1
 72
     1
  1
2x
  7
SLDTEXTSTYLE0
 73
     1
 44
1.0
  0
ENDBLK
  5
106
330
104
100
AcDbEntity
  8
0
100
AcDbBlockEnd
  0
BLOCK
  5
118
330
117
100
AcDbEntity
  8
0
100
AcDbBlockBegin
  2
_D_3
 70
     0
 10
0.0
 20
0.0
 30
0.0
  3
_D_3
  1

  0
SOLID
  5
11A
330
117
100
AcDbEntity
  8
0
  6
Continuous
 62
   136
370
     0
100
AcDbTrace
 10
7.3472022938
 20
17.2460028123
 30
0.0
 11
7.5352022938
 21
17.2060028123
 31
0.0
 12
7.5352022938
 22
17.2860028123
 32
0.0
 13
7.5352022938
 23
17.2860028123
 33
0.0
  0
SOLID
  5
11B
330
117
100
AcDbEntity
  8
0
  6
Continuous
 62
   136
370
     0
100
AcDbTrace
 10
14.2222022938
 20
17.2460028123
 30
0.0
 11
14.0342022938
 21
17.2860028123
 31
0.0
 12
14.0342022938
 22
17.2060028123
 32
0.0
 13
14.0342022938
 23
17.2060028123
 33
0.0
  0
LINE
  5
11C
330
117
100
AcDbEntity
  8
0
  6
Continuous
 62
   136
370
     0
100
AcDbLine
 10
10.5937301266
 20
17.4378430895
 30
0.0
 11
10.5077926293
 21
17.4378430895
 31
0.0
  0
LINE
  5
11D
330
117
100
AcDbEntity
  8
0
  6
Continuous
 62
   136
370
     0
100
AcDbLine
 10
10.5077926293
 20
17.4378430895
 30
0.0
 11
10.5077926293
 21
17.0541625351
 31
0.0
  0
LINE
  5
11E
330
117
100
AcDbEntity
  8
0
  6
Continuous
 62
   136
370
     0
100
AcDbLine
 10
10.5077926293
 20
17.0541625351
 30
0.0
 11
10.5937301266
 21
17.0541625351
 31
0.0
  0
LINE
  5
11F
330
117
100
AcDbEntity
  8
0
  6
Continuous
 62
   136
370
     0
100
AcDbLine
 10
11.6440773395
 20
17.4378430895
 30
0.0
 11
11.7300148368
 21
17.4378430895
 31
0.0
  0
LINE
  5
120
330
117
100
AcDbEntity
  8
0
  6
Continuous
 62
   136
370
     0
100
AcDbLine
 10
11.7300148368
 20
17.4378430895
 30
0.0
 11
11.7300148368
 21
17.0541625351
 31
0.0
  0
LINE
  5
121
330
117
100
AcDbEntity
  8
0
  6
Continuous
 62
   136
370
     0
100
AcDbLine
 10
11.7300148368
 20
17.0541625351
 30
0.0
 11
11.6440773395
 21
17.0541625351
 31
0.0
  0
LINE
  5
122
330
117
100
AcDbEntity
  8
0
  6
Continuous
 62
   136
370
     0
100
AcDbLine
 10
7.3472022938
 20
15.4337193477
 30
0.0
 11
7.3472022938
 21
17.4960028123
 31
0.0
  0
LINE
  5
123
330
117
100
AcDbEntity
  8
0
  6
Continuous
 62
   136
370
     0
100
AcDbLine
 10
14.2222022938
 20
15.4337193477
 30
0.0
 11
14.2222022938
 21
17.4960028123
 31
0.0
  0
LINE
  5
124
330
117
100
AcDbEntity
  8
0
  6
Continuous
 62
   136
370
     0
100
AcDbLine
 10
7.3472022938
 20
17.2460028123
 30
0.0
 11
9.6962097607
 21
17.2460028123
 31
0.0
  0
LINE
  5
125
330
117
100
AcDbEntity
  8
0
  6
Continuous
 62
   136
370
     0
100
AcDbLine
 10
14.2222022938
 20
17.2460028123
 30
0.0
 11
11.8731948269
 21
17.2460028123
 31
0.0
  0
MTEXT
  5
126
330
117
100
AcDbEntity
  8
0
  6
Continuous
 62
   136
370
     0
100
AcDbMText
 10
9.7534523269
 20
17.3764294792
 30
0.0
 40
0.25
 41
0.0
 71
     1
 72
     1
  1
6.88
  7
SLDTEXTSTYLE0
 73
     1
 44
1.0
  0
MTEXT
  5
127
330
117
100
AcDbEntity
  8
0
  6
Continuous
 62
   136
370
     0
100
AcDbMText
 10
10.5937301266
 20
17.3764294792
 30
0.0
 40
0.25
 41
0.0
 71
     1
 72
     1
  1
174.63
  7
SLDTEXTSTYLE0
 73
     1
 44
1.0
  0
ENDBLK
  5
119
330
117
100
AcDbEntity
  8
0
100
AcDbBlockEnd
  0
BLOCK
  5
12A
330
129
100
AcDbEntity
  8
0
100
AcDbBlockBegin
  2
_D_4
 70
     0
 10
0.0
 20
0.0
 30
0.0
  3
_D_4
  1

  0
SOLID
  5
12C
330
129
100
AcDbEntity
  8
0
  6
Continuous
 62
   136
370
     0
100
AcDbTrace
 10
13.9092022938
 20
16.3011209225
 30
0.0
 11
13.7212022938
 21
16.3411209225
 31
0.0
 12
13.7212022938
 22
16.2611209225
 32
0.0
 13
13.7212022938
 23
16.2611209225
 33
0.0
  0
SOLID
  5
12D
330
129
100
AcDbEntity
  8
0
  6
Continuous
 62
   136
370
     0
100
AcDbTrace
 10
7.6602022938
 20
16.3011209225
 30
0.0
 11
7.8482022938
 21
16.2611209225
 31
0.0
 12
7.8482022938
 22
16.3411209225
 32
0.0
 13
7.8482022938
 23
16.3411209225
 33
0.0
  0
LINE
  5
12E
330
129
100
AcDbEntity
  8
0
  6
Continuous
 62
   136
370
     0
100
AcDbLine
 10
10.5937301266
 20
16.6848014769
 30
0.0
 11
10.5077926293
 21
16.6848014769
 31
0.0
  0
LINE
  5
12F
330
129
100
AcDbEntity
  8
0
  6
Continuous
 62
   136
370
     0
100
AcDbLine
 10
10.5077926293
 20
16.6848014769
 30
0.0
 11
10.5077926293
 21
16.3011209225
 31
0.0
  0
LINE
  5
130
330
129
100
AcDbEntity
  8
0
  6
Continuous
 62
   136
370
     0
100
AcDbLine
 10
10.5077926293
 20
16.3011209225
 30
0.0
 11
10.5937301266
 21
16.3011209225
 31
0.0
  0
LINE
  5
131
330
129
100
AcDbEntity
  8
0
  6
Continuous
 62
   136
370
     0
100
AcDbLine
 10
11.6440773395
 20
16.6848014769
 30
0.0
 11
11.7300148368
 21
16.6848014769
 31
0.0
  0
LINE
  5
132
330
129
100
AcDbEntity
  8
0
  6
Continuous
 62
   136
370
     0
100
AcDbLine
 10
11.7300148368
 20
16.6848014769
 30
0.0
 11
11.7300148368
 21
16.3011209225
 31
0.0
  0
LINE
  5
133
330
129
100
AcDbEntity
  8
0
  6
Continuous
 62
   136
370
     0
100
AcDbLine
 10
11.7300148368
 20
16.3011209225
 30
0.0
 11
11.6440773395
 21
16.3011209225
 31
0.0
  0
LINE
  5
134
330
129
100
AcDbEntity
  8
0
  6
Continuous
 62
   136
370
     0
100
AcDbLine
 10
13.9092022938
 20
15.3637193477
 30
0.0
 11
13.9092022938
 21
16.5511209225
 31
0.0
  0
LINE
  5
135
330
129
100
AcDbEntity
  8
0
  6
Continuous
 62
   136
370
     0
100
AcDbLine
 10
7.6602022938
 20
15.3637193477
 30
0.0
 11
7.6602022938
 21
16.5511209225
 31
0.0
  0
LINE
  5
136
330
129
100
AcDbEntity
  8
0
  6
Continuous
 62
   136
370
     0
100
AcDbLine
 10
13.9092022938
 20
16.3011209225
 30
0.0
 11
11.8731948269
 21
16.3011209225
 31
0.0
  0
LINE
  5
137
330
129
100
AcDbEntity
  8
0
  6
Continuous
 62
   136
370
     0
100
AcDbLine
 10
7.6602022938
 20
16.3011209225
 30
0.0
 11
9.6962097607
 21
16.3011209225
 31
0.0
  0
MTEXT
  5
138
330
129
100
AcDbEntity
  8
0
  6
Continuous
 62
   136
370
     0
100
AcDbMText
 10
9.7534523269
 20
16.6233878666
 30
0.0
 40
0.25
 41
0.0
 71
     1
 72
     1
  1
6.25
  7
SLDTEXTSTYLE0
 73
     1
 44
1.0
  0
MTEXT
  5
139
330
129
100
AcDbEntity
  8
0
  6
Continuous
 62
   136
370
     0
100
AcDbMText
 10
10.5937301266
 20
16.6233878666
 30
0.0
 40
0.25
 41
0.0
 71
     1
 72
     1
  1
158.72
  7
SLDTEXTSTYLE0
 73
     1
 44
1.0
  0
MTEXT
  5
13A
330
129
100
AcDbEntity
  8
0
  6
Continuous
 62
   136
370
     0
100
AcDbMText
 10
10.6032786763
 20
16.1824156474
 30
0.0
 40
0.25
 41
0.0
 71
     1
 72
     1
  1
2x
  7
SLDTEXTSTYLE0
 73
     1
 44
1.0
  0
ENDBLK
  5
12B
330
129
100
AcDbEntity
  8
0
100
AcDbBlockEnd
  0
BLOCK
  5
13E
330
13D
100
AcDbEntity
  8
0
100
AcDbBlockBegin
  2
_D_5
 70
     0
 10
0.0
 20
0.0
 30
0.0
  3
_D_5
  1

  0
SOLID
  5
140
330
13D
100
AcDbEntity
  8
0
  6
Continuous
 62
   136
370
     0
100
AcDbTrace
 10
6.444224018
 20
15.5137193477
 30
0.0
 11
6.484224018
 21
15.7017193477
 31
0.0
 12
6.404224018
 22
15.7017193477
 32
0.0
 13
6.404224018
 23
15.7017193477
 33
0.0
  0
SOLID
  5
141
330
13D
100
AcDbEntity
  8
0
  6
Continuous
 62
   136
370
     0
100
AcDbTrace
 10
6.444224018
 20
15.2637193477
 30
0.0
 11
6.404224018
 21
15.0757193477
 31
0.0
 12
6.484224018
 22
15.0757193477
 32
0.0
 13
6.484224018
 23
15.0757193477
 33
0.0
  0
LINE
  5
142
330
13D
100
AcDbEntity
  8
0
  6
Continuous
 62
   136
370
     0
100
AcDbLine
 10
4.8383702601
 20
14.8474572375
 30
0.0
 11
4.7524327629
 21
14.8474572375
 31
0.0
  0
LINE
  5
143
330
13D
100
AcDbEntity
  8
0
  6
Continuous
 62
   136
370
     0
100
AcDbLine
 10
4.7524327629
 20
14.8474572375
 30
0.0
 11
4.7524327629
 21
14.4637766832
 31
0.0
  0
LINE
  5
144
330
13D
100
AcDbEntity
  8
0
  6
Continuous
 62
   136
370
     0
100
AcDbLine
 10
4.7524327629
 20
14.4637766832
 30
0.0
 11
4.8383702601
 21
14.4637766832
 31
0.0
  0
LINE
  5
145
330
13D
100
AcDbEntity
  8
0
  6
Continuous
 62
   136
370
     0
100
AcDbLine
 10
5.5067730654
 20
14.8474572375
 30
0.0
 11
5.5927105626
 21
14.8474572375
 31
0.0
  0
LINE
  5
146
330
13D
100
AcDbEntity
  8
0
  6
Continuous
 62
   136
370
     0
100
AcDbLine
 10
5.5927105626
 20
14.8474572375
 30
0.0
 11
5.5927105626
 21
14.4637766832
 31
0.0
  0
LINE
  5
147
330
13D
100
AcDbEntity
  8
0
  6
Continuous
 62
   136
370
     0
100
AcDbLine
 10
5.5927105626
 20
14.4637766832
 30
0.0
 11
5.5067730654
 21
14.4637766832
 31
0.0
  0
LINE
  5
148
330
13D
100
AcDbEntity
  8
0
  6
Continuous
 62
   136
370
     0
100
AcDbLine
 10
7.4272022938
 20
15.5137193477
 30
0.0
 11
6.194224018
 21
15.5137193477
 31
0.0
  0
LINE
  5
149
330
13D
100
AcDbEntity
  8
0
  6
Continuous
 62
   136
370
     0
100
AcDbLine
 10
7.5602022938
 20
15.2637193477
 30
0.0
 11
6.194224018
 21
15.2637193477
 31
0.0
  0
LINE
  5
14A
330
13D
100
AcDbEntity
  8
0
  6
Continuous
 62
   136
370
     0
100
AcDbLine
 10
6.194224018
 20
14.6556169604
 30
0.0
 11
6.444224018
 21
14.6556169604
 31
0.0
  0
LINE
  5
14B
330
13D
100
AcDbEntity
  8
0
  6
Continuous
 62
   136
370
     0
100
AcDbLine
 10
6.444224018
 20
14.6556169604
 30
0.0
 11
6.444224018
 21
15.2637193477
 31
0.0
  0
LINE
  5
14C
330
13D
100
AcDbEntity
  8
0
  6
Continuous
 62
   136
370
     0
100
AcDbLine
 10
6.444224018
 20
15.5137193477
 30
0.0
 11
6.444224018
 21
15.8897193477
 31
0.0
  0
MTEXT
  5
14D
330
13D
100
AcDbEntity
  8
0
  6
Continuous
 62
   136
370
     0
100
AcDbMText
 10
4.189064701
 20
14.7860436273
 30
0.0
 40
0.25
 41
0.0
 71
     1
 72
     1
  1
.25
  7
SLDTEXTSTYLE0
 73
     1
 44
1.0
  0
MTEXT
  5
14E
330
13D
100
AcDbEntity
  8
0
  6
Continuous
 62
   136
370
     0
100
AcDbMText
 10
4.8383702601
 20
14.7860436273
 30
0.0
 40
0.25
 41
0.0
 71
     1
 72
     1
  1
6.35
  7
SLDTEXTSTYLE0
 73
     1
 44
1.0
  0
MTEXT
  5
14F
330
13D
100
AcDbEntity
  8
0
  6
Continuous
 62
   136
370
     0
100
AcDbMText
 10
5.7723979865
 20
14.7860436273
 30
0.0
 40
0.25
 41
0.0
 71
     1
 72
     1
  1
2x
  7
SLDTEXTSTYLE0
 73
     1
 44
1.0
  0
ENDBLK
  5
13F
330
13D
100
AcDbEntity
  8
0
100
AcDbBlockEnd
  0
BLOCK
  5
152
330
151
100
AcDbEntity
  8
0
100
AcDbBlockBegin
  2
_D_6
 70
     0
 10
0.0
 20
0.0
 30
0.0
  3
_D_6
  1

  0
SOLID
  5
154
330
151
100
AcDbEntity
  8
0
  6
Continuous
 62
   136
370
     0
100
AcDbTrace
 10
7.3472022938
 20
16.7735618674
 30
0.0
 11
7.1592022938
 21
16.8135618674
 31
0.0
 12
7.1592022938
 22
16.7335618674
 32
0.0
 13
7.1592022938
 23
16.7335618674
 33
0.0
  0
SOLID
  5
155
330
151
100
AcDbEntity
  8
0
  6
Continuous
 62
   136
370
     0
100
AcDbTrace
 10
7.6602022938
 20
16.7735618674
 30
0.0
 11
7.8482022938
 21
16.7335618674
 31
0.0
 12
7.8482022938
 22
16.8135618674
 32
0.0
 13
7.8482022938
 23
16.8135618674
 33
0.0
  0
LINE
  5
156
330
151
100
AcDbEntity
  8
0
  6
Continuous
 62
   136
370
     0
100
AcDbLine
 10
5.4398362131
 20
16.9654021446
 30
0.0
 11
5.3538987159
 21
16.9654021446
 31
0.0
  0
LINE
  5
157
330
151
100
AcDbEntity
  8
0
  6
Continuous
 62
   136
370
     0
100
AcDbLine
 10
5.3538987159
 20
16.9654021446
 30
0.0
 11
5.3538987159
 21
16.5817215902
 31
0.0
  0
LINE
  5
158
330
151
100
AcDbEntity
  8
0
  6
Continuous
 62
   136
370
     0
100
AcDbLine
 10
5.3538987159
 20
16.5817215902
 30
0.0
 11
5.4398362131
 21
16.5817215902
 31
0.0
  0
LINE
  5
159
330
151
100
AcDbEntity
  8
0
  6
Continuous
 62
   136
370
     0
100
AcDbLine
 10
6.1082390184
 20
16.9654021446
 30
0.0
 11
6.1941765156
 21
16.9654021446
 31
0.0
  0
LINE
  5
15A
330
151
100
AcDbEntity
  8
0
  6
Continuous
 62
   136
370
     0
100
AcDbLine
 10
6.1941765156
 20
16.9654021446
 30
0.0
 11
6.1941765156
 21
16.5817215902
 31
0.0
  0
LINE
  5
15B
330
151
100
AcDbEntity
  8
0
  6
Continuous
 62
   136
370
     0
100
AcDbLine
 10
6.1941765156
 20
16.5817215902
 30
0.0
 11
6.1082390184
 21
16.5817215902
 31
0.0
  0
LINE
  5
15C
330
151
100
AcDbEntity
  8
0
  6
Continuous
 62
   136
370
     0
100
AcDbLine
 10
7.3472022938
 20
15.4337193477
 30
0.0
 11
7.3472022938
 21
17.0235618674
 31
0.0
  0
LINE
  5
15D
330
151
100
AcDbEntity
  8
0
  6
Continuous
 62
   136
370
     0
100
AcDbLine
 10
7.6602022938
 20
15.3637193477
 30
0.0
 11
7.6602022938
 21
17.0235618674
 31
0.0
  0
LINE
  5
15E
330
151
100
AcDbEntity
  8
0
  6
Continuous
 62
   136
370
     0
100
AcDbLine
 10
7.3472022938
 20
16.7735618674
 30
0.0
 11
6.795689971
 21
16.7735618674
 31
0.0
  0
LINE
  5
15F
330
151
100
AcDbEntity
  8
0
  6
Continuous
 62
   136
370
     0
100
AcDbLine
 10
7.6602022938
 20
16.7735618674
 30
0.0
 11
8.0362022938
 21
16.7735618674
 31
0.0
  0
MTEXT
  5
160
330
151
100
AcDbEntity
  8
0
  6
Continuous
 62
   136
370
     0
100
AcDbMText
 10
4.790530654
 20
16.9039885343
 30
0.0
 40
0.25
 41
0.0
 71
     1
 72
     1
  1
.31
  7
SLDTEXTSTYLE0
 73
     1
 44
1.0
  0
MTEXT
  5
161
330
151
100
AcDbEntity
  8
0
  6
Continuous
 62
   136
370
     0
100
AcDbMText
 10
5.4398362131
 20
16.9039885343
 30
0.0
 40
0.25
 41
0.0
 71
     1
 72
     1
  1
7.95
  7
SLDTEXTSTYLE0
 73
     1
 44
1.0
  0
MTEXT
  5
162
330
151
100
AcDbEntity
  8
0
  6
Continuous
 62
   136
370
     0
100
AcDbMText
 10
6.3738639395
 20
16.9039885343
 30
0.0
 40
0.25
 41
0.0
 71
     1
 72
     1
  1
2x
  7
SLDTEXTSTYLE0
 73
     1
 44
1.0
  0
ENDBLK
  5
153
330
151
100
AcDbEntity
  8
0
100
AcDbBlockEnd
  0
BLOCK
  5
170
330
16F
100
AcDbEntity
  8
0
100
AcDbBlockBegin
  2
_D_7
 70
     0
 10
0.0
 20
0.0
 30
0.0
  3
_D_7
  1

  0
SOLID
  5
172
330
16F
100
AcDbEntity
  8
0
  6
Continuous
 62
   136
370
     0
100
AcDbTrace
 10
20.270128807
 20
16.3011209225
 30
0.0
 11
20.082128807
 21
16.3411209225
 31
0.0
 12
20.082128807
 22
16.2611209225
 32
0.0
 13
20.082128807
 23
16.2611209225
 33
0.0
  0
SOLID
  5
173
330
16F
100
AcDbEntity
  8
0
  6
Continuous
 62
   136
370
     0
100
AcDbTrace
 10
20.344828807
 20
16.3011209225
 30
0.0
 11
20.532828807
 21
16.2611209225
 31
0.0
 12
20.532828807
 22
16.3411209225
 32
0.0
 13
20.532828807
 23
16.3411209225
 33
0.0
  0
LINE
  5
174
330
16F
100
AcDbEntity
  8
0
  6
Continuous
 62
   136
370
     0
100
AcDbLine
 10
21.6382233549
 20
16.4929611997
 30
0.0
 11
21.5522858577
 21
16.4929611997
 31
0.0
  0
LINE
  5
175
330
16F
100
AcDbEntity
  8
0
  6
Continuous
 62
   136
370
     0
100
AcDbLine
 10
21.5522858577
 20
16.4929611997
 30
0.0
 11
21.5522858577
 21
16.1092806453
 31
0.0
  0
LINE
  5
176
330
16F
100
AcDbEntity
  8
0
  6
Continuous
 62
   136
370
     0
100
AcDbLine
 10
21.5522858577
 20
16.1092806453
 30
0.0
 11
21.6382233549
 21
16.1092806453
 31
0.0
  0
LINE
  5
177
330
16F
100
AcDbEntity
  8
0
  6
Continuous
 62
   136
370
     0
100
AcDbLine
 10
22.3066261602
 20
16.4929611997
 30
0.0
 11
22.3925636574
 21
16.4929611997
 31
0.0
  0
LINE
  5
178
330
16F
100
AcDbEntity
  8
0
  6
Continuous
 62
   136
370
     0
100
AcDbLine
 10
22.3925636574
 20
16.4929611997
 30
0.0
 11
22.3925636574
 21
16.1092806453
 31
0.0
  0
LINE
  5
179
330
16F
100
AcDbEntity
  8
0
  6
Continuous
 62
   136
370
     0
100
AcDbLine
 10
22.3925636574
 20
16.1092806453
 30
0.0
 11
22.3066261602
 21
16.1092806453
 31
0.0
  0
LINE
  5
17A
330
16F
100
AcDbEntity
  8
0
  6
Continuous
 62
   136
370
     0
100
AcDbLine
 10
20.270128807
 20
15.6137193477
 30
0.0
 11
20.270128807
 21
16.5511209225
 31
0.0
  0
LINE
  5
17B
330
16F
100
AcDbEntity
  8
0
  6
Continuous
 62
   136
370
     0
100
AcDbLine
 10
20.344828807
 20
15.6137193477
 30
0.0
 11
20.344828807
 21
16.5511209225
 31
0.0
  0
LINE
  5
17C
330
16F
100
AcDbEntity
  8
0
  6
Continuous
 62
   136
370
     0
100
AcDbLine
 10
20.270128807
 20
16.3011209225
 30
0.0
 11
19.894128807
 21
16.3011209225
 31
0.0
  0
LINE
  5
17D
330
16F
100
AcDbEntity
  8
0
  6
Continuous
 62
   136
370
     0
100
AcDbLine
 10
20.344828807
 20
16.3011209225
 30
0.0
 11
20.740702989
 21
16.3011209225
 31
0.0
  0
MTEXT
  5
17E
330
16F
100
AcDbEntity
  8
0
  6
Continuous
 62
   136
370
     0
100
AcDbMText
 10
20.7979455552
 20
16.4315475895
 30
0.0
 40
0.25
 41
0.0
 71
     1
 72
     1
  1
.075
  7
SLDTEXTSTYLE0
 73
     1
 44
1.0
  0
MTEXT
  5
17F
330
16F
100
AcDbEntity
  8
0
  6
Continuous
 62
   136
370
     0
100
AcDbMText
 10
21.6382233549
 20
16.4315475895
 30
0.0
 40
0.25
 41
0.0
 71
     1
 72
     1
  1
1.90
  7
SLDTEXTSTYLE0
 73
     1
 44
1.0
  0
MTEXT
  5
180
330
16F
100
AcDbEntity
  8
0
  6
Continuous
 62
   136
370
     0
100
AcDbMText
 10
22.5722511546
 20
16.4315475895
 30
0.0
 40
0.25
 41
0.0
 71
     1
 72
     1
  1
REF.
  7
SLDTEXTSTYLE0
 73
     1
 44
1.0
  0
ENDBLK
  5
171
330
16F
100
AcDbEntity
  8
0
100
AcDbBlockEnd
  0
ENDSEC
  0
SECTION
  2
ENTITIES
  0
LINE
  5
73
330
1F
100
AcDbEntity
  8
0
  6
Continuous
 62
     7
370
     0
100
AcDbLine
 10
1.2525032092
 20
21.2841463415
 30
0.0
 11
32.7525032092
 21
21.2841463415
 31
0.0
  0
LINE
  5
74
330
1F
100
AcDbEntity
  8
0
  6
Continuous
 62
     7
370
     0
100
AcDbLine
 10
1.2525032092
 20
21.2841463415
 30
0.0
 11
1.2525032092
 21
0.7841463415
 31
0.0
  0
LINE
  5
75
330
1F
100
AcDbEntity
  8
0
  6
Continuous
 62
     7
370
     0
100
AcDbLine
 10
32.7525032092
 20
0.7841463415
 30
0.0
 11
1.2525032092
 21
0.7841463415
 31
0.0
  0
LINE
  5
76
330
1F
100
AcDbEntity
  8
0
  6
Continuous
 62
     7
370
     0
100
AcDbLine
 10
32.7525032092
 20
0.7841463415
 30
0.0
 11
32.7525032092
 21
21.2841463415
 31
0.0
  0
LINE
  5
77
330
1F
100
AcDbEntity
  8
0
  6
Continuous
 62
     7
370
     0
100
AcDbLine
 10
23.7525032092
 20
2.2841463415
 30
0.0
 11
19.5025032092
 21
2.2841463415
 31
0.0
  0
LINE
  5
78
330
1F
100
AcDbEntity
  8
0
  6
Continuous
 62
     7
370
     0
100
AcDbLine
 10
19.5025032092
 20
0.7841463415
 30
0.0
 11
19.5025032092
 21
2.2841463415
 31
0.0
  0
LINE
  5
79
330
1F
100
AcDbEntity
  8
0
  6
Continuous
 62
     7
370
     0
100
AcDbLine
 10
19.5025032092
 20
0.7841463415
 30
0.0
 11
23.7525032092
 21
0.7841463415
 31
0.0
  0
LINE
  5
7A
330
1F
100
AcDbEntity
  8
0
  6
Continuous
 62
     7
370
     0
100
AcDbLine
 10
23.7525032092
 20
3.5341463415
 30
0.0
 11
32.7525032092
 21
3.5341463415
 31
0.0
  0
LINE
  5
7B
330
1F
100
AcDbEntity
  8
0
  6
Continuous
 62
     7
370
     0
100
AcDbLine
 10
23.8231171087
 20
4.9381463415
 30
0.0
 11
23.8231171087
 21
3.6301463415
 31
0.0
  0
LINE
  5
7C
330
1F
100
AcDbEntity
  8
0
  6
Continuous
 62
     7
370
     0
100
AcDbLine
 10
23.8231171087
 20
3.6301463415
 30
0.0
 11
26.5698814818
 21
3.6301463415
 31
0.0
  0
LINE
  5
7D
330
1F
100
AcDbEntity
  8
0
  6
Continuous
 62
     7
370
     0
100
AcDbLine
 10
26.5698814818
 20
3.6301463415
 30
0.0
 11
26.5698814818
 21
4.9381463415
 31
0.0
  0
LINE
  5
7E
330
1F
100
AcDbEntity
  8
0
  6
Continuous
 62
     7
370
     0
100
AcDbLine
 10
26.5698814818
 20
4.9381463415
 30
0.0
 11
23.8231171087
 21
4.9381463415
 31
0.0
  0
LINE
  5
7F
330
1F
100
AcDbEntity
  8
0
  6
Continuous
 62
     7
370
     0
100
AcDbLine
 10
23.9208052995
 20
3.7588715393
 30
0.0
 11
24.6928052995
 21
4.8048715393
 31
0.0
  0
LINE
  5
80
330
1F
100
AcDbEntity
  8
0
  6
Continuous
 62
     7
370
     0
100
AcDbLine
 10
24.6928052995
 20
4.8048715393
 30
0.0
 11
25.4648052995
 21
3.7588715393
 31
0.0
  0
LINE
  5
81
330
1F
100
AcDbEntity
  8
0
  6
Continuous
 62
     7
370
     0
100
AcDbLine
 10
24.1942359509
 20
3.7588715393
 30
0.0
 11
24.6928052995
 21
4.4343942577
 31
0.0
  0
LINE
  5
82
330
1F
100
AcDbEntity
  8
0
  6
Continuous
 62
     7
370
     0
100
AcDbLine
 10
24.6928052995
 20
4.4343942577
 30
0.0
 11
25.191374648
 21
3.7588715393
 31
0.0
  0
LINE
  5
83
330
1F
100
AcDbEntity
  8
0
  6
Continuous
 62
     7
370
     0
100
AcDbLine
 10
23.9208052995
 20
3.7588715393
 30
0.0
 11
24.1942359509
 21
3.7588715393
 31
0.0
  0
LINE
  5
84
330
1F
100
AcDbEntity
  8
0
  6
Continuous
 62
     7
370
     0
100
AcDbLine
 10
25.191374648
 20
3.7588715393
 30
0.0
 11
25.4648052995
 21
3.7588715393
 31
0.0
  0
LINE
  5
85
330
1F
100
AcDbEntity
  8
0
  6
Continuous
 62
     7
370
     0
100
AcDbLine
 10
23.9723091235
 20
3.7848715393
 30
0.0
 11
24.6928052995
 21
4.7610878606
 31
0.0
  0
LINE
  5
86
330
1F
100
AcDbEntity
  8
0
  6
Continuous
 62
     7
370
     0
100
AcDbLine
 10
24.6928052995
 20
4.7610878606
 30
0.0
 11
25.4133014754
 21
3.7848715393
 31
0.0
  0
LINE
  5
87
330
1F
100
AcDbEntity
  8
0
  6
Continuous
 62
     7
370
     0
100
AcDbLine
 10
23.7525032092
 20
0.7841463415
 30
0.0
 11
23.7525032092
 21
2.2841463415
 31
0.0
  0
LINE
  5
88
330
1F
100
AcDbEntity
  8
0
  6
Continuous
 62
     7
370
     0
100
AcDbLine
 10
23.7525032092
 20
5.0341463415
 30
0.0
 11
32.7525032092
 21
5.0341463415
 31
0.0
  0
LINE
  5
89
330
1F
100
AcDbEntity
  8
0
  6
Continuous
 62
     7
370
     0
100
AcDbLine
 10
23.7525032092
 20
5.0341463415
 30
0.0
 11
23.7525032092
 21
0.7841463415
 31
0.0
  0
LINE
  5
8A
330
1F
100
AcDbEntity
  8
0
  6
Continuous
 62
     7
370
     0
100
AcDbLine
 10
24.0046236551
 20
3.7848715393
 30
0.0
 11
24.6928052995
 21
4.7173041818
 31
0.0
  0
LINE
  5
8B
330
1F
100
AcDbEntity
  8
0
  6
Continuous
 62
     7
370
     0
100
AcDbLine
 10
24.6928052995
 20
4.7173041818
 30
0.0
 11
25.3809869438
 21
3.7848715393
 31
0.0
  0
LINE
  5
8C
330
1F
100
AcDbEntity
  8
0
  6
Continuous
 62
     7
370
     0
100
AcDbLine
 10
28.0614586166
 20
21.2841463415
 30
0.0
 11
28.0614586166
 21
20.578503575
 31
0.0
  0
LINE
  5
8D
330
1F
100
AcDbEntity
  8
0
  6
Continuous
 62
     7
370
     0
100
AcDbLine
 10
23.7525032092
 20
2.2841463415
 30
0.0
 11
32.7525032092
 21
2.2841463415
 31
0.0
  0
LINE
  5
8E
330
1F
100
AcDbEntity
  8
0
  6
Continuous
 62
     7
370
     0
100
AcDbLine
 10
24.0369381866
 20
3.7848715393
 30
0.0
 11
24.6928052995
 21
4.6735205031
 31
0.0
  0
LINE
  5
8F
330
1F
100
AcDbEntity
  8
0
  6
Continuous
 62
     7
370
     0
100
AcDbLine
 10
24.6928052995
 20
4.6735205031
 30
0.0
 11
25.3486724123
 21
3.7848715393
 31
0.0
  0
LINE
  5
90
330
1F
100
AcDbEntity
  8
0
  6
Continuous
 62
     7
370
     0
100
AcDbLine
 10
24.1811107119
 20
3.7848715393
 30
0.0
 11
24.6928052995
 21
4.4781779364
 31
0.0
  0
LINE
  5
91
330
1F
100
AcDbEntity
  8
0
  6
Continuous
 62
     7
370
     0
100
AcDbLine
 10
24.6928052995
 20
4.4781779364
 30
0.0
 11
25.204499887
 21
3.7848715393
 31
0.0
  0
LINE
  5
92
330
1F
100
AcDbEntity
  8
0
  6
Continuous
 62
     7
370
     0
100
AcDbLine
 10
17.5025032092
 20
0.7841463415
 30
0.0
 11
23.7525032092
 21
0.7841463415
 31
0.0
  0
LINE
  5
93
330
1F
100
AcDbEntity
  8
0
  6
Continuous
 62
     7
370
     0
100
AcDbLine
 10
24.1487961804
 20
3.7848715393
 30
0.0
 11
24.6928052995
 21
4.5219616152
 31
0.0
  0
LINE
  5
94
330
1F
100
AcDbEntity
  8
0
  6
Continuous
 62
     7
370
     0
100
AcDbLine
 10
24.6928052995
 20
4.5219616152
 30
0.0
 11
25.2368144185
 21
3.7848715393
 31
0.0
  0
LINE
  5
95
330
1F
100
AcDbEntity
  8
0
  6
Continuous
 62
     7
370
     0
100
AcDbLine
 10
24.1164816488
 20
3.7848715393
 30
0.0
 11
24.6928052995
 21
4.5657452939
 31
0.0
  0
LINE
  5
96
330
1F
100
AcDbEntity
  8
0
  6
Continuous
 62
     7
370
     0
100
AcDbLine
 10
24.6928052995
 20
4.5657452939
 30
0.0
 11
25.2691289501
 21
3.7848715393
 31
0.0
  0
LINE
  5
97
330
1F
100
AcDbEntity
  8
0
  6
Continuous
 62
     7
370
     0
100
AcDbLine
 10
24.0841671173
 20
3.7848715393
 30
0.0
 11
24.6928052995
 21
4.6095289726
 31
0.0
  0
LINE
  5
98
330
1F
100
AcDbEntity
  8
0
  6
Continuous
 62
     7
370
     0
100
AcDbLine
 10
25.3014434816
 20
3.7848715393
 30
0.0
 11
24.6928052995
 21
4.6095289726
 31
0.0
  0
LINE
  5
99
330
1F
100
AcDbEntity
  8
0
  6
Continuous
 62
     7
370
     0
100
AcDbLine
 10
28.0614586166
 20
20.578503575
 30
0.0
 11
32.7525032092
 21
20.578503575
 31
0.0
  0
LINE
  5
9A
330
1F
100
AcDbEntity
  8
0
  6
Continuous
 62
     7
370
     0
100
AcDbLine
 10
24.0598711788
 20
3.7848715393
 30
0.0
 11
24.6936460496
 21
4.6420297445
 31
0.0
  0
LINE
  5
9B
330
1F
100
AcDbEntity
  8
0
  6
Continuous
 62
     7
370
     0
100
AcDbLine
 10
24.6936460496
 20
4.6420297445
 30
0.0
 11
25.3262714171
 21
3.7848715393
 31
0.0
  0
LINE
  5
9C
330
1F
100
AcDbEntity
  8
0
  6
Continuous
 62
     7
370
     0
100
AcDbLine
 10
25.2512770968
 20
4.1795366947
 30
0.0
 11
25.7128052995
 21
4.8048715393
 31
0.0
  0
LINE
  5
9D
330
1F
100
AcDbEntity
  8
0
  6
Continuous
 62
     7
370
     0
100
AcDbLine
 10
25.2835916283
 20
4.1795366947
 30
0.0
 11
25.7128052995
 21
4.7610878606
 31
0.0
  0
LINE
  5
9E
330
1F
100
AcDbEntity
  8
0
  6
Continuous
 62
     7
370
     0
100
AcDbLine
 10
25.2997488941
 20
4.1576448553
 30
0.0
 11
25.7128052995
 21
4.7173041818
 31
0.0
  0
LINE
  5
9F
330
1F
100
AcDbEntity
  8
0
  6
Continuous
 62
     7
370
     0
100
AcDbLine
 10
25.3395206252
 20
4.1037572507
 30
0.0
 11
25.7128052995
 21
4.6095289726
 31
0.0
  0
LINE
  5
A0
330
1F
100
AcDbEntity
  8
0
  6
Continuous
 62
     7
370
     0
100
AcDbLine
 10
25.355677891
 20
4.0818654114
 30
0.0
 11
25.7128052995
 21
4.5657452939
 31
0.0
  0
LINE
  5
A1
330
1F
100
AcDbEntity
  8
0
  6
Continuous
 62
     7
370
     0
100
AcDbLine
 10
25.3159061598
 20
4.135753016
 30
0.0
 11
25.7128052995
 21
4.6735205031
 31
0.0
  0
LINE
  5
A2
330
1F
100
AcDbEntity
  8
0
  6
Continuous
 62
     7
370
     0
100
AcDbLine
 10
25.3275973114
 20
4.1199124142
 30
0.0
 11
25.7136460496
 21
4.6420297445
 31
0.0
  0
LINE
  5
A3
330
1F
100
AcDbEntity
  8
0
  6
Continuous
 62
     7
370
     0
100
AcDbLine
 10
25.1687961804
 20
3.7848715393
 30
0.0
 11
25.1704907679
 21
3.7871675737
 31
0.0
  0
LINE
  5
A4
330
1F
100
AcDbEntity
  8
0
  6
Continuous
 62
     7
370
     0
100
AcDbLine
 10
25.2011107119
 20
3.7848715393
 30
0.0
 11
25.2028052995
 21
3.7871675737
 31
0.0
  0
LINE
  5
A5
330
1F
100
AcDbEntity
  8
0
  6
Continuous
 62
     7
370
     0
100
AcDbLine
 10
25.3879924225
 20
3.9942980539
 30
0.0
 11
25.7128052995
 21
4.4343942577
 31
0.0
  0
LINE
  5
A6
330
1F
100
AcDbEntity
  8
0
  6
Continuous
 62
     7
370
     0
100
AcDbLine
 10
25.7128052995
 20
4.4343942577
 30
0.0
 11
26.211374648
 21
3.7588715393
 31
0.0
  0
LINE
  5
A7
330
1F
100
AcDbEntity
  8
0
  6
Continuous
 62
     7
370
     0
100
AcDbLine
 10
25.7128052995
 20
4.4781779364
 30
0.0
 11
26.224499887
 21
3.7848715393
 31
0.0
  0
LINE
  5
A8
330
1F
100
AcDbEntity
  8
0
  6
Continuous
 62
     7
370
     0
100
AcDbLine
 10
25.7128052995
 20
4.5219616152
 30
0.0
 11
26.2568144185
 21
3.7848715393
 31
0.0
  0
LINE
  5
A9
330
1F
100
AcDbEntity
  8
0
  6
Continuous
 62
     7
370
     0
100
AcDbLine
 10
25.7128052995
 20
4.5657452939
 30
0.0
 11
26.2891289501
 21
3.7848715393
 31
0.0
  0
LINE
  5
AA
330
1F
100
AcDbEntity
  8
0
  6
Continuous
 62
     7
370
     0
100
AcDbLine
 10
26.3214434816
 20
3.7848715393
 30
0.0
 11
25.7128052995
 21
4.6095289726
 31
0.0
  0
LINE
  5
AB
330
1F
100
AcDbEntity
  8
0
  6
Continuous
 62
     7
370
     0
100
AcDbLine
 10
25.7136460496
 20
4.6420297445
 30
0.0
 11
26.3462714171
 21
3.7848715393
 31
0.0
  0
LINE
  5
AC
330
1F
100
AcDbEntity
  8
0
  6
Continuous
 62
     7
370
     0
100
AcDbLine
 10
25.7128052995
 20
4.6735205031
 30
0.0
 11
26.3686724123
 21
3.7848715393
 31
0.0
  0
LINE
  5
AD
330
1F
100
AcDbEntity
  8
0
  6
Continuous
 62
     7
370
     0
100
AcDbLine
 10
25.7128052995
 20
4.7173041818
 30
0.0
 11
26.4009869438
 21
3.7848715393
 31
0.0
  0
LINE
  5
AE
330
1F
100
AcDbEntity
  8
0
  6
Continuous
 62
     7
370
     0
100
AcDbLine
 10
25.7128052995
 20
4.7610878606
 30
0.0
 11
26.4333014754
 21
3.7848715393
 31
0.0
  0
LINE
  5
AF
330
1F
100
AcDbEntity
  8
0
  6
Continuous
 62
     7
370
     0
100
AcDbLine
 10
25.7128052995
 20
4.8048715393
 30
0.0
 11
26.4848052995
 21
3.7588715393
 31
0.0
  0
LINE
  5
B0
330
1F
100
AcDbEntity
  8
0
  6
Continuous
 62
     7
370
     0
100
AcDbLine
 10
26.211374648
 20
3.7588715393
 30
0.0
 11
26.4848052995
 21
3.7588715393
 31
0.0
  0
LINE
  5
B1
330
1F
100
AcDbEntity
  8
0
  6
Continuous
 62
     7
370
     0
100
AcDbLine
 10
25.2512770968
 20
4.1795366947
 30
0.0
 11
25.3879924225
 21
3.9942980539
 31
0.0
  0
LINE
  5
B2
330
1F
100
AcDbEntity
  8
0
  6
Continuous
 62
     7
370
     0
100
AcDbLine
 10
25.3718351567
 20
4.059973572
 30
0.0
 11
25.7128052995
 21
4.5219616152
 31
0.0
  0
LINE
  5
B3
330
1F
100
AcDbEntity
  8
0
  6
Continuous
 62
     7
370
     0
100
AcDbLine
 10
25.3879924225
 20
4.0380817326
 30
0.0
 11
25.7128052995
 21
4.4781779364
 31
0.0
  0
CIRCLE
  5
B4
330
1F
100
AcDbEntity
  8
0
  6
Continuous
 62
     7
370
     0
100
AcDbCircle
 10
24.6928052995
 20
4.0730313947
 30
0.0
 40
0.1700000000000021
  0
CIRCLE
  5
B5
330
1F
100
AcDbEntity
  8
0
  6
Continuous
 62
     7
370
     0
100
AcDbCircle
 10
24.6928052995
 20
4.0730313947
 30
0.0
 40
0.1337659445098253
  0
CIRCLE
  5
B6
330
1F
100
AcDbEntity
  8
0
  6
Continuous
 62
     7
370
     0
100
AcDbCircle
 10
24.6928052995
 20
4.0730313947
 30
0.0
 40
0.0994082334452212
  0
CIRCLE
  5
B7
330
1F
100
AcDbEntity
  8
0
  6
Continuous
 62
     7
370
     0
100
AcDbCircle
 10
24.6928052995
 20
4.0730313947
 30
0.0
 40
0.0632066116303426
  0
CIRCLE
  5
B8
330
1F
100
AcDbEntity
  8
0
  6
Continuous
 62
     7
370
     0
100
AcDbCircle
 10
24.6928052995
 20
4.0730313947
 30
0.0
 40
0.0307629624616403
  0
CIRCLE
  5
B9
330
1F
100
AcDbEntity
  8
0
  6
Continuous
 62
     7
370
     0
100
AcDbCircle
 10
26.7906997941
 20
4.6420297445
 30
0.0
 40
0.1529999999999975
  0
MTEXT
  5
BB
330
1F
100
AcDbEntity
  8
0
  6
Continuous
 62
   136
370
     0
100
AcDbMText
 10
9.5120510096
 20
5.3234335211
 30
0.0
 40
0.2916666667
 41
0.0
 71
     1
 72
     1
  1
WHITE PAINTED 14 GAUGE STEEL
  7
SLDTEXTSTYLE0
 73
     1
 44
1.0
  0
MTEXT
  5
BD
330
1F
100
AcDbEntity
  8
0
  6
Continuous
 62
     7
370
     0
100
AcDbMText
 10
26.7115753846
 20
4.7464599023
 30
0.0
 40
0.2196
 41
0.0
 71
     1
 72
     1
  1
R
  7
SLDTEXTSTYLE1
 73
     1
 44
1.0
  0
MTEXT
  5
BE
330
1F
100
AcDbEntity
  8
0
  6
Continuous
 62
     7
370
     0
100
AcDbMText
 10
27.1335918253
 20
4.8445522
 30
0.0
 40
0.312
 41
0.0
 71
     1
 72
     1
  1
ALLIED MOULDED PRODUCTS
  7
SLDTEXTSTYLE1
 73
     1
 44
1.0
  0
MTEXT
  5
BF
330
1F
100
AcDbEntity
  8
0
  6
Continuous
 62
     7
370
     0
100
AcDbMText
 10
28.7435317648
 20
4.4681123394
 30
0.0
 40
0.2836
 41
0.0
 71
     1
 72
     1
  1
BRYAN, OHIO
  7
SLDTEXTSTYLE1
 73
     1
 44
1.0
  0
MTEXT
  5
C1
330
1F
100
AcDbEntity
  8
0
  6
Continuous
 62
     7
370
     0
100
AcDbMText
 10
27.3186674725
 20
3.9447160511
 30
0.0
 40
0.2291666667
 41
0.0
 71
     1
 72
     1
  1
The Original Fiber Glass Outlet Box
  7
SLDTEXTSTYLE2
 73
     1
 44
1.0
  0
MTEXT
  5
C2
330
1F
100
AcDbEntity
  8
0
  6
Continuous
 62
     7
370
     0
100
AcDbMText
 10
23.8052391193
 20
3.4783072065
 30
0.0
 40
0.1666666667
 41
0.0
 71
     1
 72
     1
  1
PRODUCT SERIES
  7
SLDTEXTSTYLE1
 73
     1
 44
1.0
  0
MTEXT
  5
C3
330
1F
100
AcDbEntity
  8
0
  6
Continuous
 62
     7
370
     0
100
AcDbMText
 10
23.8045248344
 20
2.2855726979
 30
0.0
 40
0.1666666667
 41
0.0
 71
     1
 72
     1
  1
Part No.
  7
SLDTEXTSTYLE1
 73
     1
 44
1.0
  0
MTEXT
  5
C4
330
1F
100
AcDbEntity
  8
0
  6
Continuous
 62
     7
370
     0
100
AcDbMText
 10
20.2888651191
 20
2.1217688494
 30
0.0
 40
0.25
 41
0.0
 71
     1
 72
     1
  1
CONFIDENTIAL
  7
SLDTEXTSTYLE2
 73
     1
 44
1.0
  0
INSERT
  5
CD
330
1F
100
AcDbEntity
  8
0
  6
Continuous
 62
     7
370
     0
100
AcDbBlockReference
  2
SW_NOTE_0
 10
19.5882929048
 20
1.5804320773
 30
0.0
  0
MTEXT
  5
CE
330
1F
100
AcDbEntity
  8
0
  6
Continuous
 62
     7
370
     0
100
AcDbMText
 10
30.3213183393
 20
21.0262604266
 30
0.0
 40
0.25
 41
0.0
 71
     1
 72
     1
  1
08/29/2014
  7
SLDTEXTSTYLE1
 73
     1
 44
1.0
  0
MTEXT
  5
CF
330
1F
100
AcDbEntity
  8
0
  6
Continuous
 62
     7
370
     0
100
AcDbMText
 10
24.1172510997
 20
1.8772980934
 30
0.0
 40
0.75
 41
0.0
 71
     1
 72
     1
  1
PL88
  7
SLDTEXTSTYLE1
 73
     1
 44
1.0
  0
MTEXT
  5
D0
330
1F
100
AcDbEntity
  8
0
  6
Continuous
 62
     7
370
     0
100
AcDbMText
 10
23.8045248344
 20
3.1464039562
 30
0.0
 40
0.5833333333
 41
0.0
 71
     1
 72
     1
  1
BACK PANEL, 8x8, STEEL
  7
SLDTEXTSTYLE1
 73
     1
 44
1.0
  0
MTEXT
  5
D1
330
1F
100
AcDbEntity
  8
0
  6
Continuous
 62
     7
370
     0
100
AcDbMText
 10
28.2081347228
 20
21.0262604266
 30
0.0
 40
0.25
 41
0.0
 71
     1
 72
     1
  1
ISSUE DATE:
  7
SLDTEXTSTYLE1
 73
     1
 44
1.0
  0
LINE
  5
D2
330
1F
100
AcDbEntity
  8
0
  6
Continuous
 62
     7
370
    15
100
AcDbLine
 10
14.2222021835
 20
15.3337192655
 30
0.0
 11
14.0422023162
 21
15.5137194261
 31
0.0
  0
LINE
  5
D3
330
1F
100
AcDbEntity
  8
0
  6
Continuous
 62
     7
370
    15
100
AcDbLine
 10
14.0422023162
 20
8.7637192693
 30
0.0
 11
14.2222021835
 21
8.94371943
 31
0.0
  0
LINE
  5
D4
330
1F
100
AcDbEntity
  8
0
  6
Continuous
 62
     7
370
    15
100
AcDbLine
 10
7.3472024041
 20
8.94371943
 30
0.0
 11
7.5272022714
 21
8.7637192693
 31
0.0
  0
LINE
  5
D5
330
1F
100
AcDbEntity
  8
0
  6
Continuous
 62
     7
370
    15
100
AcDbLine
 10
7.5272022714
 20
15.5137194261
 30
0.0
 11
7.3472024041
 21
15.3337192655
 31
0.0
  0
CIRCLE
  5
D6
330
1F
100
AcDbEntity
  8
0
  6
Continuous
 62
     7
370
    15
100
AcDbCircle
 10
7.6602022938
 20
9.0137193477
 30
0.0
 40
0.125
  0
CIRCLE
  5
D7
330
1F
100
AcDbEntity
  8
0
  6
Continuous
 62
     7
370
    15
100
AcDbCircle
 10
13.9092022938
 20
9.0137193477
 30
0.0
 40
0.125
  0
CIRCLE
  5
D8
330
1F
100
AcDbEntity
  8
0
  6
Continuous
 62
     7
370
    15
100
AcDbCircle
 10
13.9092022938
 20
15.2637193477
 30
0.0
 40
0.125
  0
CIRCLE
  5
D9
330
1F
100
AcDbEntity
  8
0
  6
Continuous
 62
     7
370
    15
100
AcDbCircle
 10
7.6602022938
 20
15.2637193477
 30
0.0
 40
0.125
  0
LINE
  5
DA
330
1F
100
AcDbEntity
  8
0
  6
Continuous
 62
     7
370
    15
100
AcDbLine
 10
7.5272022714
 20
8.7637192693
 30
0.0
 11
14.0422023162
 21
8.7637192693
 31
0.0
  0
LINE
  5
DB
330
1F
100
AcDbEntity
  8
0
  6
Continuous
 62
     7
370
    15
100
AcDbLine
 10
7.3472024041
 20
15.3337192655
 30
0.0
 11
7.3472024041
 21
8.94371943
 31
0.0
  0
LINE
  5
DC
330
1F
100
AcDbEntity
  8
0
  6
Continuous
 62
     7
370
    15
100
AcDbLine
 10
14.0422023162
 20
15.5137194261
 30
0.0
 11
7.5272022714
 21
15.5137194261
 31
0.0
  0
LINE
  5
DD
330
1F
100
AcDbEntity
  8
0
  6
Continuous
 62
     7
370
    15
100
AcDbLine
 10
14.2222021835
 20
8.94371943
 30
0.0
 11
14.2222021835
 21
15.3337192655
 31
0.0
  0
DIMENSION
  5
DE
330
1F
100
AcDbEntity
  8
0
  6
Continuous
 62
   136
370
     0
100
AcDbDimension
  2
_D
 10
7.5742200718
 20
9.1044500343
 30
0.0
 11
9.874643826
 21
7.9763177729
 31
0.0
 70
   163
  1
<>\P4x
 71
     1
 42
-1.0
  3
SLDDIMSTYLE0
100
AcDbDiametricDimension
 15
7.7461845158
 25
8.9229886611
 35
0.0
 40
0.0
  0
DIMENSION
  5
F0
330
1F
100
AcDbEntity
  8
0
  6
Continuous
 62
   136
370
     0
100
AcDbDimension
  2
_D_1
 10
17.8442495379
 20
15.5137193477
 30
0.0
 11
17.8442495379
 21
12.7615492027
 31
0.0
 70
   160
  1
<>
 71
     2
 42
-1.0
  3
SLDDIMSTYLE1
100
AcDbAlignedDimension
 13
14.0422022938
 23
8.7637193477
 33
0.0
 14
14.0422022938
 24
15.5137193477
 34
0.0
 50
90.0
100
AcDbRotatedDimension
  0
DIMENSION
  5
103
330
1F
100
AcDbEntity
  8
0
  6
Continuous
 62
   136
370
     0
100
AcDbDimension
  2
_D_2
 10
15.4820448135
 20
9.0137193477
 30
0.0
 11
15.4820448135
 21
12.1387193477
 31
0.0
 70
   160
  1
<>\P2x
 71
     2
 42
-1.0
  3
SLDDIMSTYLE1
100
AcDbAlignedDimension
 13
13.9092022938
 23
15.2637193477
 33
0.0
 14
13.9092022938
 24
9.0137193477
 34
0.0
 50
90.0
100
AcDbRotatedDimension
  0
DIMENSION
  5
116
330
1F
100
AcDbEntity
  8
0
  6
Continuous
 62
   136
370
     0
100
AcDbDimension
  2
_D_3
 10
14.2222022938
 20
17.2460028123
 30
0.0
 11
10.7847022938
 21
17.2460028123
 31
0.0
 70
   160
  1
<>
 71
     2
 42
-1.0
  3
SLDDIMSTYLE1
100
AcDbAlignedDimension
 13
7.3472022938
 23
15.3337193477
 33
0.0
 14
14.2222022938
 24
15.3337193477
 34
0.0
100
AcDbRotatedDimension
  0
DIMENSION
  5
128
330
1F
100
AcDbEntity
  8
0
  6
Continuous
 62
   136
370
     0
100
AcDbDimension
  2
_D_4
 10
7.6602022938
 20
16.3011209225
 30
0.0
 11
10.7847022938
 21
16.3011209225
 31
0.0
 70
   160
  1
<>\P2x
 71
     2
 42
-1.0
  3
SLDDIMSTYLE1
100
AcDbAlignedDimension
 13
13.9092022938
 23
15.2637193477
 33
0.0
 14
7.6602022938
 24
15.2637193477
 34
0.0
100
AcDbRotatedDimension
  0
DIMENSION
  5
13B
330
1F
100
AcDbEntity
  8
0
  6
Continuous
 62
   136
370
     0
100
AcDbDimension
  2
_D_5
 10
6.444224018
 20
15.2637193477
 30
0.0
 11
6.444224018
 21
14.6556169604
 31
0.0
 70
   160
  1
<> 2x
 71
     2
 42
-1.0
  3
SLDDIMSTYLE2
100
AcDbAlignedDimension
 13
7.5272022938
 23
15.5137193477
 33
0.0
 14
7.6602022938
 24
15.2637193477
 34
0.0
 50
90.0
100
AcDbRotatedDimension
  0
DIMENSION
  5
150
330
1F
100
AcDbEntity
  8
0
  6
Continuous
 62
   136
370
     0
100
AcDbDimension
  2
_D_6
 10
7.6602022938
 20
16.7735618674
 30
0.0
 11
5.7644890294
 21
16.7735618674
 31
0.0
 70
   160
  1
<> 2x
 71
     2
 42
-1.0
  3
SLDDIMSTYLE2
100
AcDbAlignedDimension
 13
7.3472022938
 23
15.3337193477
 33
0.0
 14
7.6602022938
 24
15.2637193477
 34
0.0
100
AcDbRotatedDimension
  0
LINE
  5
163
330
1F
100
AcDbEntity
  8
0
  6
Continuous
 62
     7
370
    15
100
AcDbLine
 10
20.2701288074
 20
8.94371943
 30
0.0
 11
20.344828807
 21
8.94371943
 31
0.0
  0
LINE
  5
164
330
1F
100
AcDbEntity
  8
0
  6
Continuous
 62
     7
370
    15
100
AcDbLine
 10
20.2701288074
 20
8.94371943
 30
0.0
 11
20.2701288074
 21
15.3337192655
 31
0.0
  0
LINE
  5
165
330
1F
100
AcDbEntity
  8
0
  6
Continuous
 62
     7
370
    15
100
AcDbLine
 10
20.344828807
 20
15.3337192655
 30
0.0
 11
20.2701288074
 21
15.3337192655
 31
0.0
  0
LINE
  5
166
330
1F
100
AcDbEntity
  8
0
  6
Continuous
 62
     7
370
    15
100
AcDbLine
 10
20.344828807
 20
8.94371943
 30
0.0
 11
20.344828807
 21
15.3337192655
 31
0.0
  0
LINE
  5
167
330
1F
100
AcDbEntity
  8
0
  6
Continuous
 62
     7
370
    15
100
AcDbLine
 10
20.344828807
 20
8.7637192693
 30
0.0
 11
20.2701288074
 21
8.7637192693
 31
0.0
  0
LINE
  5
168
330
1F
100
AcDbEntity
  8
0
  6
Continuous
 62
     7
370
    15
100
AcDbLine
 10
20.344828807
 20
8.94371943
 30
0.0
 11
20.344828807
 21
8.7637192693
 31
0.0
  0
LINE
  5
169
330
1F
100
AcDbEntity
  8
0
  6
Continuous
 62
     7
370
    15
100
AcDbLine
 10
20.2701288074
 20
8.7637192693
 30
0.0
 11
20.2701288074
 21
8.94371943
 31
0.0
  0
LINE
  5
16A
330
1F
100
AcDbEntity
  8
0
  6
Continuous
 62
     7
370
    15
100
AcDbLine
 10
20.2701288074
 20
15.5137194261
 30
0.0
 11
20.344828807
 21
15.5137194261
 31
0.0
  0
LINE
  5
16B
330
1F
100
AcDbEntity
  8
0
  6
Continuous
 62
     7
370
    15
100
AcDbLine
 10
20.344828807
 20
15.5137194261
 30
0.0
 11
20.344828807
 21
15.3337192655
 31
0.0
  0
LINE
  5
16C
330
1F
100
AcDbEntity
  8
0
  6
Continuous
 62
     7
370
    15
100
AcDbLine
 10
20.2701288074
 20
15.3337192655
 30
0.0
 11
20.2701288074
 21
15.5137194261
 31
0.0
  0
DIMENSION
  5
16D
330
1F
100
AcDbEntity
  8
0
  6
Continuous
 62
   136
370
     0
100
AcDbDimension
  2
_D_7
 10
20.344828807
 20
16.3011209225
 30
0.0
 11
22.0771122715
 21
16.3011209225
 31
0.0
 70
   160
  1
<> REF.
 71
     2
 42
-1.0
  3
SLDDIMSTYLE3
100
AcDbAlignedDimension
 13
20.270128807
 23
15.5137193477
 33
0.0
 14
20.344828807
 24
15.5137193477
 34
0.0
100
AcDbRotatedDimension
  0
ENDSEC
  0
SECTION
  2
OBJECTS
  0
DICTIONARY
  5
C
330
0
100
AcDbDictionary
281
     1
  3
ACAD_GROUP
350
D
  3
ACAD_LAYOUT
350
1A
  3
ACAD_MLINESTYLE
350
17
  3
ACAD_PLOTSETTINGS
350
19
  3
ACAD_PLOTSTYLENAME
350
E
  3
ACAD_SCALELIST
350
47
  0
DICTIONARY
  5
D
102
{ACAD_REACTORS
330
C
102
}
330
C
100
AcDbDictionary
281
     1
  0
DICTIONARY
  5
1A
102
{ACAD_REACTORS
330
C
102
}
330
C
100
AcDbDictionary
281
     1
  3
Layout1
350
1E
  3
Layout2
350
26
  3
Model
350
22
  0
DICTIONARY
  5
17
102
{ACAD_REACTORS
330
C
102
}
330
C
100
AcDbDictionary
281
     1
  3
Standard
350
18
  0
DICTIONARY
  5
19
102
{ACAD_REACTORS
330
C
102
}
330
C
100
AcDbDictionary
281
     1
  0
ACDBDICTIONARYWDFLT
  5
E
102
{ACAD_REACTORS
330
C
102
}
330
C
100
AcDbDictionary
281
     1
  3
Normal
350
F
100
AcDbDictionaryWithDefault
340
F
  0
DICTIONARY
  5
47
102
{ACAD_REACTORS
330
C
102
}
330
C
100
AcDbDictionary
281
     1
  3
A0
350
48
  3
A1
350
49
  3
A2
350
4A
  3
A3
350
4B
  3
A4
350
4C
  3
A5
350
4D
  3
A6
350
4E
  3
A7
350
4F
  3
A8
350
50
  3
A9
350
51
  3
B0
350
52
  3
B1
350
53
  3
B2
350
54
  3
B3
350
55
  3
B4
350
56
  3
B5
350
57
  3
B6
350
58
  3
B7
350
59
  3
B8
350
5A
  3
B9
350
5B
  3
C0
350
5C
  3
C1
350
5D
  3
C2
350
5E
  3
C3
350
5F
  3
C4
350
60
  3
C5
350
61
  3
C6
350
62
  3
C7
350
63
  3
C8
350
64
  3
C9
350
65
  3
D0
350
66
  3
D1
350
67
  3
D2
350
68
  0
LAYOUT
  5
1E
102
{ACAD_REACTORS
330
1A
102
}
330
1A
100
AcDbPlotSettings
  1

  2
none_device
  4

  6

 40
0.0
 41
0.0
 42
0.0
 43
0.0
 44
0.0
 45
0.0
 46
0.0
 47
0.0
 48
0.0
 49
0.0
140
0.0
141
0.0
142
1.0
143
1.0
 70
   688
 72
     0
 73
     0
 74
     5
  7

 75
    16
147
1.0
148
0.0
149
0.0
100
AcDbLayout
  1
Layout1
 70
     1
 71
     1
 10
0.0
 20
0.0
 11
12.0
 21
9.0
 12
0.0
 22
0.0
 32
0.0
 14
1.0000000000E+20
 24
1.0000000000E+20
 34
1.0000000000E+20
 15
-1.0000000000E+20
 25
-1.0000000000E+20
 35
-1.0000000000E+20
146
0.0
 13
0.0
 23
0.0
 33
0.0
 16
1.0
 26
0.0
 36
0.0
 17
0.0
 27
1.0
 37
0.0
 76
     0
330
1B
  0
LAYOUT
  5
26
102
{ACAD_REACTORS
330
1A
102
}
330
1A
100
AcDbPlotSettings
  1

  2
none_device
  4

  6

 40
0.0
 41
0.0
 42
0.0
 43
0.0
 44
0.0
 45
0.0
 46
0.0
 47
0.0
 48
0.0
 49
0.0
140
0.0
141
0.0
142
1.0
143
1.0
 70
   688
 72
     0
 73
     0
 74
     5
  7

 75
    16
147
1.0
148
0.0
149
0.0
100
AcDbLayout
  1
Layout2
 70
     1
 71
     2
 10
0.0
 20
0.0
 11
0.0
 21
0.0
 12
0.0
 22
0.0
 32
0.0
 14
0.0
 24
0.0
 34
0.0
 15
0.0
 25
0.0
 35
0.0
146
0.0
 13
0.0
 23
0.0
 33
0.0
 16
1.0
 26
0.0
 36
0.0
 17
0.0
 27
1.0
 37
0.0
 76
     0
330
23
  0
LAYOUT
  5
22
102
{ACAD_REACTORS
330
1A
102
}
330
1A
100
AcDbPlotSettings
  1

  2
none_device
  4
Letter_(8.50_x_11.00_Inches)
  6

 40
6.35
 41
6.35
 42
6.35000508
 43
6.35000508
 44
215.9
 45
279.4
 46
0.0
 47
0.0
 48
0.0
 49
0.0
140
0.0
141
0.0
142
1.0
143
1.0
 70
  1712
 72
     0
 73
     0
 74
     0
  7

 75
     0
147
1.0
148
0.0
149
0.0
100
AcDbLayout
  1
Model
 70
     1
 71
     0
 10
0.0
 20
0.0
 11
34.0
 21
22.0
 12
0.0
 22
0.0
 32
0.0
 14
0.0
 24
0.0
 34
0.0
 15
34.0
 25
22.0
 35
0.0
146
0.0
 13
0.0
 23
0.0
 33
0.0
 16
1.0
 26
0.0
 36
0.0
 17
0.0
 27
1.0
 37
0.0
 76
     0
330
1F
331
29
  0
MLINESTYLE
  5
18
102
{ACAD_REACTORS
330
17
102
}
330
17
100
AcDbMlineStyle
  2
Standard
 70
     0
  3

 62
   256
 51
90.0
 52
90.0
 71
     2
 49
0.5
 62
   256
  6
BYLAYER
 49
-0.5
 62
   256
  6
BYLAYER
  0
ACDBPLACEHOLDER
  5
F
102
{ACAD_REACTORS
330
E
102
}
330
E
  0
SCALE
  5
48
102
{ACAD_REACTORS
330
47
102
}
330
47
100
AcDbScale
 70
     0
300
1:1
140
1.0
141
1.0
290
     1
  0
SCALE
  5
49
102
{ACAD_REACTORS
330
47
102
}
330
47
100
AcDbScale
 70
     0
300
1:2
140
1.0
141
2.0
290
     0
  0
SCALE
  5
4A
102
{ACAD_REACTORS
330
47
102
}
330
47
100
AcDbScale
 70
     0
300
1:4
140
1.0
141
4.0
290
     0
  0
SCALE
  5
4B
102
{ACAD_REACTORS
330
47
102
}
330
47
100
AcDbScale
 70
     0
300
1:5
140
1.0
141
5.0
290
     0
  0
SCALE
  5
4C
102
{ACAD_REACTORS
330
47
102
}
330
47
100
AcDbScale
 70
     0
300
1:8
140
1.0
141
8.0
290
     0
  0
SCALE
  5
4D
102
{ACAD_REACTORS
330
47
102
}
330
47
100
AcDbScale
 70
     0
300
1:10
140
1.0
141
10.0
290
     0
  0
SCALE
  5
4E
102
{ACAD_REACTORS
330
47
102
}
330
47
100
AcDbScale
 70
     0
300
1:16
140
1.0
141
16.0
290
     0
  0
SCALE
  5
4F
102
{ACAD_REACTORS
330
47
102
}
330
47
100
AcDbScale
 70
     0
300
1:20
140
1.0
141
20.0
290
     0
  0
SCALE
  5
50
102
{ACAD_REACTORS
330
47
102
}
330
47
100
AcDbScale
 70
     0
300
1:30
140
1.0
141
30.0
290
     0
  0
SCALE
  5
51
102
{ACAD_REACTORS
330
47
102
}
330
47
100
AcDbScale
 70
     0
300
1:40
140
1.0
141
40.0
290
     0
  0
SCALE
  5
52
102
{ACAD_REACTORS
330
47
102
}
330
47
100
AcDbScale
 70
     0
300
1:50
140
1.0
141
50.0
290
     0
  0
SCALE
  5
53
102
{ACAD_REACTORS
330
47
102
}
330
47
100
AcDbScale
 70
     0
300
1:100
140
1.0
141
100.0
290
     0
  0
SCALE
  5
54
102
{ACAD_REACTORS
330
47
102
}
330
47
100
AcDbScale
 70
     0
300
2:1
140
2.0
141
1.0
290
     0
  0
SCALE
  5
55
102
{ACAD_REACTORS
330
47
102
}
330
47
100
AcDbScale
 70
     0
300
4:1
140
4.0
141
1.0
290
     0
  0
SCALE
  5
56
102
{ACAD_REACTORS
330
47
102
}
330
47
100
AcDbScale
 70
     0
300
8:1
140
8.0
141
1.0
290
     0
  0
SCALE
  5
57
102
{ACAD_REACTORS
330
47
102
}
330
47
100
AcDbScale
 70
     0
300
10:1
140
10.0
141
1.0
290
     0
  0
SCALE
  5
58
102
{ACAD_REACTORS
330
47
102
}
330
47
100
AcDbScale
 70
     0
300
100:1
140
100.0
141
1.0
290
     0
  0
SCALE
  5
59
102
{ACAD_REACTORS
330
47
102
}
330
47
100
AcDbScale
 70
     0
300
1/128" = 1'-0"
140
0.0078125
141
12.0
290
     0
  0
SCALE
  5
5A
102
{ACAD_REACTORS
330
47
102
}
330
47
100
AcDbScale
 70
     0
300
1/64" = 1'-0"
140
0.015625
141
12.0
290
     0
  0
SCALE
  5
5B
102
{ACAD_REACTORS
330
47
102
}
330
47
100
AcDbScale
 70
     0
300
1/32" = 1'-0"
140
0.03125
141
12.0
290
     0
  0
SCALE
  5
5C
102
{ACAD_REACTORS
330
47
102
}
330
47
100
AcDbScale
 70
     0
300
1/16" = 1'-0"
140
0.0625
141
12.0
290
     0
  0
SCALE
  5
5D
102
{ACAD_REACTORS
330
47
102
}
330
47
100
AcDbScale
 70
     0
300
3/32" = 1'-0"
140
0.09375
141
12.0
290
     0
  0
SCALE
  5
5E
102
{ACAD_REACTORS
330
47
102
}
330
47
100
AcDbScale
 70
     0
300
1/8" = 1'-0"
140
0.125
141
12.0
290
     0
  0
SCALE
  5
5F
102
{ACAD_REACTORS
330
47
102
}
330
47
100
AcDbScale
 70
     0
300
3/16" = 1'-0"
140
0.1875
141
12.0
290
     0
  0
SCALE
  5
60
102
{ACAD_REACTORS
330
47
102
}
330
47
100
AcDbScale
 70
     0
300
1/4" = 1'-0"
140
0.25
141
12.0
290
     0
  0
SCALE
  5
61
102
{ACAD_REACTORS
330
47
102
}
330
47
100
AcDbScale
 70
     0
300
3/8" = 1'-0"
140
0.375
141
12.0
290
     0
  0
SCALE
  5
62
102
{ACAD_REACTORS
330
47
102
}
330
47
100
AcDbScale
 70
     0
300
1/2" = 1'-0"
140
0.5
141
12.0
290
     0
  0
SCALE
  5
63
102
{ACAD_REACTORS
330
47
102
}
330
47
100
AcDbScale
 70
     0
300
3/4" = 1'-0"
140
0.75
141
12.0
290
     0
  0
SCALE
  5
64
102
{ACAD_REACTORS
330
47
102
}
330
47
100
AcDbScale
 70
     0
300
1" = 1'-0"
140
1.0
141
12.0
290
     0
  0
SCALE
  5
65
102
{ACAD_REACTORS
330
47
102
}
330
47
100
AcDbScale
 70
     0
300
1-1/2" = 1'-0"
140
1.5
141
12.0
290
     0
  0
SCALE
  5
66
102
{ACAD_REACTORS
330
47
102
}
330
47
100
AcDbScale
 70
     0
300
3" = 1'-0"
140
3.0
141
12.0
290
     0
  0
SCALE
  5
67
102
{ACAD_REACTORS
330
47
102
}
330
47
100
AcDbScale
 70
     0
300
6" = 1'-0"
140
6.0
141
12.0
290
     0
  0
SCALE
  5
68
102
{ACAD_REACTORS
330
47
102
}
330
47
100
AcDbScale
 70
     0
300
1'-0" = 1'-0"
140
12.0
141
12.0
290
     0
  0
ENDSEC
  0
EOF
