  0
SECTION
  2
HEADER
  9
$ACADVER
  1
AC1015
  9
$ACADMAINTVER
 70
     6
  9
$DWGCODEPAGE
  3
ANSI_1252
  9
$INSBASE
 10
0.0
 20
0.0
 30
0.0
  9
$EXTMIN
 10
0.0
 20
0.0
 30
0.0
  9
$EXTMAX
 10
21.25
 20
13.75
 30
0.0
  9
$LIMMIN
 10
0.0
 20
0.0
  9
$LIMMAX
 10
21.25
 20
13.75
  9
$ORTHOMODE
 70
     0
  9
$REGENMODE
 70
     1
  9
$FILLMODE
 70
     1
  9
$QTEXTMODE
 70
     0
  9
$MIRRTEXT
 70
     1
  9
$LTSCALE
 40
1.25
  9
$ATTMODE
 70
     1
  9
$TEXTSIZE
 40
0.15625
  9
$TRACEWID
 40
0.05
  9
$TEXTSTYLE
  7
Standard
  9
$CLAYER
  8
0
  9
$CELTYPE
  6
ByLayer
  9
$CECOLOR
 62
   256
  9
$CELTSCALE
 40
1.0
  9
$DISPSILH
 70
     0
  9
$DIMSCALE
 40
1.0
  9
$DIMASZ
 40
0.1175
  9
$DIMEXO
 40
0.0625
  9
$DIMDLI
 40
0.38
  9
$DIMRND
 40
0.0
  9
$DIMDLE
 40
0.0
  9
$DIMEXE
 40
0.15625
  9
$DIMTP
 40
0.0
  9
$DIMTM
 40
0.0
  9
$DIMTXT
 40
0.15625
  9
$DIMCEN
 40
0.09
  9
$DIMTSZ
 40
0.0
  9
$DIMTOL
 70
     0
  9
$DIMLIM
 70
     0
  9
$DIMTIH
 70
     1
  9
$DIMTOH
 70
     1
  9
$DIMSE1
 70
     0
  9
$DIMSE2
 70
     0
  9
$DIMTAD
 70
     0
  9
$DIMZIN
 70
     0
  9
$DIMBLK
  1

  9
$DIMASO
 70
     1
  9
$DIMSHO
 70
     1
  9
$DIMPOST
  1

  9
$DIMAPOST
  1

  9
$DIMALT
 70
     0
  9
$DIMALTD
 70
     2
  9
$DIMALTF
 40
25.4
  9
$DIMLFAC
 40
1.0
  9
$DIMTOFL
 70
     0
  9
$DIMTVP
 40
0.0
  9
$DIMTIX
 70
     0
  9
$DIMSOXD
 70
     0
  9
$DIMSAH
 70
     0
  9
$DIMBLK1
  1

  9
$DIMBLK2
  1

  9
$DIMSTYLE
  2
Standard
  9
$DIMCLRD
 70
     0
  9
$DIMCLRE
 70
     0
  9
$DIMCLRT
 70
     0
  9
$DIMTFAC
 40
1.0
  9
$DIMGAP
 40
0.075
  9
$DIMJUST
 70
     0
  9
$DIMSD1
 70
     0
  9
$DIMSD2
 70
     0
  9
$DIMTOLJ
 70
     1
  9
$DIMTZIN
 70
     0
  9
$DIMALTZ
 70
     0
  9
$DIMALTTZ
 70
     0
  9
$DIMUPT
 70
     0
  9
$DIMDEC
 70
     2
  9
$DIMTDEC
 70
     2
  9
$DIMALTU
 70
     2
  9
$DIMALTTD
 70
     2
  9
$DIMTXSTY
  7
Standard
  9
$DIMAUNIT
 70
     0
  9
$DIMADEC
 70
     2
  9
$DIMALTRND
 40
0.0
  9
$DIMAZIN
 70
     0
  9
$DIMDSEP
 70
    46
  9
$DIMATFIT
 70
     3
  9
$DIMFRAC
 70
     0
  9
$DIMLDRBLK
  1

  9
$DIMLUNIT
 70
     2
  9
$DIMLWD
 70
    -2
  9
$DIMLWE
 70
    -2
  9
$DIMTMOVE
 70
     0
  9
$LUNITS
 70
     2
  9
$LUPREC
 70
     2
  9
$SKETCHINC
 40
0.1
  9
$FILLETRAD
 40
0.5
  9
$AUNITS
 70
     0
  9
$AUPREC
 70
     2
  9
$MENU
  1
.
  9
$ELEVATION
 40
0.0
  9
$PELEVATION
 40
0.0
  9
$THICKNESS
 40
0.0
  9
$LIMCHECK
 70
     0
  9
$CHAMFERA
 40
0.0
  9
$CHAMFERB
 40
0.0
  9
$CHAMFERC
 40
0.0
  9
$CHAMFERD
 40
0.0
  9
$SKPOLY
 70
     0
  9
$TDCREATE
 40
2457571.682088831
  9
$TDUCREATE
 40
2457571.848755497
  9
$TDUPDATE
 40
2457571.682090347
  9
$TDUUPDATE
 40
2457571.848757014
  9
$TDINDWG
 40
0.0000000116
  9
$TDUSRTIMER
 40
0.0000000116
  9
$USRTIMER
 70
     1
  9
$ANGBASE
 50
0.0
  9
$ANGDIR
 70
     0
  9
$PDMODE
 70
     0
  9
$PDSIZE
 40
-1.0
  9
$PLINEWID
 40
0.0
  9
$SPLFRAME
 70
     0
  9
$SPLINETYPE
 70
     6
  9
$SPLINESEGS
 70
     8
  9
$HANDSEED
  5
171
  9
$SURFTAB1
 70
     6
  9
$SURFTAB2
 70
     6
  9
$SURFTYPE
 70
     6
  9
$SURFU
 70
     6
  9
$SURFV
 70
     6
  9
$UCSBASE
  2

  9
$UCSNAME
  2

  9
$UCSORG
 10
0.0
 20
0.0
 30
0.0
  9
$UCSXDIR
 10
1.0
 20
0.0
 30
0.0
  9
$UCSYDIR
 10
0.0
 20
1.0
 30
0.0
  9
$UCSORTHOREF
  2

  9
$UCSORTHOVIEW
 70
     0
  9
$UCSORGTOP
 10
0.0
 20
0.0
 30
0.0
  9
$UCSORGBOTTOM
 10
0.0
 20
0.0
 30
0.0
  9
$UCSORGLEFT
 10
0.0
 20
0.0
 30
0.0
  9
$UCSORGRIGHT
 10
0.0
 20
0.0
 30
0.0
  9
$UCSORGFRONT
 10
0.0
 20
0.0
 30
0.0
  9
$UCSORGBACK
 10
0.0
 20
0.0
 30
0.0
  9
$PUCSBASE
  2

  9
$PUCSNAME
  2

  9
$PUCSORG
 10
0.0
 20
0.0
 30
0.0
  9
$PUCSXDIR
 10
1.0
 20
0.0
 30
0.0
  9
$PUCSYDIR
 10
0.0
 20
1.0
 30
0.0
  9
$PUCSORTHOREF
  2

  9
$PUCSORTHOVIEW
 70
     0
  9
$PUCSORGTOP
 10
0.0
 20
0.0
 30
0.0
  9
$PUCSORGBOTTOM
 10
0.0
 20
0.0
 30
0.0
  9
$PUCSORGLEFT
 10
0.0
 20
0.0
 30
0.0
  9
$PUCSORGRIGHT
 10
0.0
 20
0.0
 30
0.0
  9
$PUCSORGFRONT
 10
0.0
 20
0.0
 30
0.0
  9
$PUCSORGBACK
 10
0.0
 20
0.0
 30
0.0
  9
$USERI1
 70
     0
  9
$USERI2
 70
     0
  9
$USERI3
 70
     0
  9
$USERI4
 70
     0
  9
$USERI5
 70
     0
  9
$USERR1
 40
0.0
  9
$USERR2
 40
0.0
  9
$USERR3
 40
0.0
  9
$USERR4
 40
0.0
  9
$USERR5
 40
0.0
  9
$WORLDVIEW
 70
     1
  9
$SHADEDGE
 70
     3
  9
$SHADEDIF
 70
    70
  9
$TILEMODE
 70
     1
  9
$MAXACTVP
 70
    64
  9
$PINSBASE
 10
0.0
 20
0.0
 30
0.0
  9
$PLIMCHECK
 70
     0
  9
$PEXTMIN
 10
1.0000000000E+20
 20
1.0000000000E+20
 30
1.0000000000E+20
  9
$PEXTMAX
 10
-1.0000000000E+20
 20
-1.0000000000E+20
 30
-1.0000000000E+20
  9
$PLIMMIN
 10
0.0
 20
0.0
  9
$PLIMMAX
 10
12.0
 20
9.0
  9
$UNITMODE
 70
     0
  9
$VISRETAIN
 70
     1
  9
$PLINEGEN
 70
     0
  9
$PSLTSCALE
 70
     1
  9
$TREEDEPTH
 70
  3020
  9
$CMLSTYLE
  2
Standard
  9
$CMLJUST
 70
     0
  9
$CMLSCALE
 40
1.0
  9
$PROXYGRAPHICS
 70
     1
  9
$MEASUREMENT
 70
     0
  9
$CELWEIGHT
370
    -1
  9
$ENDCAPS
280
     0
  9
$JOINSTYLE
280
     0
  9
$LWDISPLAY
290
     1
  9
$INSUNITS
 70
     1
  9
$HYPERLINKBASE
  1

  9
$STYLESHEET
  1

  9
$XEDIT
290
     1
  9
$CEPSNTYPE
380
     0
  9
$PSTYLEMODE
290
     1
  9
$FINGERPRINTGUID
  2
{6B56A7FF-1808-464F-A42A-22A92A718612}
  9
$VERSIONGUID
  2
{FAEB1C32-E019-11D5-929B-00C0DF256EC4}
  9
$EXTNAMES
290
     1
  9
$PSVPSCALE
 40
0.0
  9
$OLESTARTUP
290
     0
  0
ENDSEC
  0
SECTION
  2
CLASSES
  0
CLASS
  1
ACDBDICTIONARYWDFLT
  2
AcDbDictionaryWithDefault
  3
ObjectDBX Classes
 90
        0
280
     0
281
     0
  0
CLASS
  1
VISUALSTYLE
  2
AcDbVisualStyle
  3
ObjectDBX Classes
 90
     4095
280
     0
281
     0
  0
CLASS
  1
MATERIAL
  2
AcDbMaterial
  3
ObjectDBX Classes
 90
     1153
280
     0
281
     0
  0
CLASS
  1
SCALE
  2
AcDbScale
  3
ObjectDBX Classes
 90
     1153
280
     0
281
     0
  0
CLASS
  1
TABLESTYLE
  2
AcDbTableStyle
  3
ObjectDBX Classes
 90
     4095
280
     0
281
     0
  0
CLASS
  1
MLEADERSTYLE
  2
AcDbMLeaderStyle
  3
ACDB_MLEADERSTYLE_CLASS
 90
     4095
280
     0
281
     0
  0
CLASS
  1
SUN
  2
AcDbSun
  3
SCENEOE
 90
     1153
280
     0
281
     0
  0
CLASS
  1
ACDBPLACEHOLDER
  2
AcDbPlaceHolder
  3
ObjectDBX Classes
 90
        0
280
     0
281
     0
  0
CLASS
  1
LAYOUT
  2
AcDbLayout
  3
ObjectDBX Classes
 90
        0
280
     0
281
     0
  0
ENDSEC
  0
SECTION
  2
TABLES
  0
TABLE
  2
VPORT
  5
8
330
0
100
AcDbSymbolTable
 70
     1
  0
VPORT
  5
29
330
8
100
AcDbSymbolTableRecord
100
AcDbViewportTableRecord
  2
*Active
 70
     0
 10
0.0
 20
0.0
 11
1.0
 21
1.0
 12
10.625
 22
6.875
 13
0.0
 23
0.0
 14
0.5
 24
0.5
 15
0.5
 25
0.5
 16
0.0
 26
0.0
 36
1.0
 17
0.0
 27
0.0
 37
0.0
 40
13.75
 41
1.5454545455
 42
50.0
 43
0.0
 44
0.0
 50
0.0
 51
0.0
 71
     0
 72
  2000
 73
     1
 74
     3
 75
     0
 76
     0
 77
     0
 78
     0
281
     0
 65
     1
110
0.0
120
0.0
130
0.0
111
1.0
121
0.0
131
0.0
112
0.0
122
1.0
132
0.0
 79
     0
146
0.0
  0
ENDTAB
  0
TABLE
  2
LTYPE
  5
5
330
0
100
AcDbSymbolTable
 70
     6
  0
LTYPE
  5
14
330
5
100
AcDbSymbolTableRecord
100
AcDbLinetypeTableRecord
  2
ByBlock
 70
     0
  3

 72
    65
 73
     0
 40
0.0
  0
LTYPE
  5
15
330
5
100
AcDbSymbolTableRecord
100
AcDbLinetypeTableRecord
  2
ByLayer
 70
     0
  3

 72
    65
 73
     0
 40
0.0
  0
LTYPE
  5
16
330
5
100
AcDbSymbolTableRecord
100
AcDbLinetypeTableRecord
  2
Continuous
 70
     0
  3
Solid line
 72
    65
 73
     0
 40
0.0
  0
LTYPE
  5
6E
330
5
100
AcDbSymbolTableRecord
100
AcDbLinetypeTableRecord
  2
HIDDEN
 70
     0
  3
Hidden __ __ __ __ __ __ __ __ __ __ __ __ __ __
 72
    65
 73
     2
 40
0.075
 49
0.05
 74
     0
 49
-0.025
 74
     0
  0
LTYPE
  5
6F
330
5
100
AcDbSymbolTableRecord
100
AcDbLinetypeTableRecord
  2
PHANTOM
 70
     0
  3
Phantom ______  __  __  ______  __  __  ______
 72
    65
 73
     6
 40
0.5
 49
0.25
 74
     0
 49
-0.05
 74
     0
 49
0.05
 74
     0
 49
-0.05
 74
     0
 49
0.05
 74
     0
 49
-0.05
 74
     0
  0
LTYPE
  5
70
330
5
100
AcDbSymbolTableRecord
100
AcDbLinetypeTableRecord
  2
CENTER
 70
     0
  3
Center ____ _ ____ _ ____ _ ____ _ ____ _ ____
 72
    65
 73
     4
 40
0.4
 49
0.25
 74
     0
 49
-0.05
 74
     0
 49
0.05
 74
     0
 49
-0.05
 74
     0
  0
LTYPE
  5
71
330
5
100
AcDbSymbolTableRecord
100
AcDbLinetypeTableRecord
  2
CENTERX2
 70
     0
  3
Center (2x) ________  __  ________  __  _____
 72
    65
 73
     4
 40
0.8
 49
0.5
 74
     0
 49
-0.1
 74
     0
 49
0.1
 74
     0
 49
-0.1
 74
     0
  0
LTYPE
  5
72
330
5
100
AcDbSymbolTableRecord
100
AcDbLinetypeTableRecord
  2
DOT2
 70
     0
  3
Dot (.5x) ........................................
 72
    65
 73
     2
 40
0.025
 49
0.0
 74
     0
 49
-0.025
 74
     0
  0
ENDTAB
  0
TABLE
  2
LAYER
  5
2
330
0
100
AcDbSymbolTable
 70
     1
  0
LAYER
  5
10
330
2
100
AcDbSymbolTableRecord
100
AcDbLayerTableRecord
  2
0
 70
     0
 62
     7
  6
Continuous
370
    -3
390
F
  0
ENDTAB
  0
TABLE
  2
STYLE
  5
3
330
0
100
AcDbSymbolTable
 70
     6
  0
STYLE
  5
11
330
3
100
AcDbSymbolTableRecord
100
AcDbTextStyleTableRecord
  2
Standard
 70
     0
 40
0.0
 41
1.0
 50
0.0
 71
     0
 42
0.15625
  3
txt
  4

  0
STYLE
  5
BD
330
3
100
AcDbSymbolTableRecord
100
AcDbTextStyleTableRecord
  2
SLDTEXTSTYLE0
 70
     0
 40
0.0
 41
0.9545454545
 50
0.0
 71
     0
 42
0.15625
  3
TXT
  4

  0
STYLE
  5
BF
330
3
100
AcDbSymbolTableRecord
100
AcDbTextStyleTableRecord
  2
SLDTEXTSTYLE1
 70
     0
 40
0.0
 41
0.92
 50
0.0
 71
     0
 42
0.15625
  3
TXT
  4

  0
STYLE
  5
C2
330
3
100
AcDbSymbolTableRecord
100
AcDbTextStyleTableRecord
  2
SLDTEXTSTYLE2
 70
     0
 40
0.0
 41
0.75
 50
0.0
 71
     0
 42
0.15625
  3
TXT
  4

  0
STYLE
  5
C6
330
3
100
AcDbSymbolTableRecord
100
AcDbTextStyleTableRecord
  2
SLDTEXTSTYLE3
 70
     0
 40
0.0
 41
0.7
 50
0.0
 71
     0
 42
0.15625
  3
TXT
  4

  0
STYLE
  5
D9
330
3
100
AcDbSymbolTableRecord
100
AcDbTextStyleTableRecord
  2
SLDTEXTSTYLE4
 70
     0
 40
0.0
 41
0.605
 50
0.0
 71
     0
 42
0.15625
  3
TXT
  4

  0
ENDTAB
  0
TABLE
  2
VIEW
  5
6
330
0
100
AcDbSymbolTable
 70
     0
  0
ENDTAB
  0
TABLE
  2
UCS
  5
7
330
0
100
AcDbSymbolTable
 70
     0
  0
ENDTAB
  0
TABLE
  2
APPID
  5
9
330
0
100
AcDbSymbolTable
 70
     1
  0
APPID
  5
12
330
9
100
AcDbSymbolTableRecord
100
AcDbRegAppTableRecord
  2
ACAD
 70
     0
  0
ENDTAB
  0
TABLE
  2
DIMSTYLE
  5
A
330
0
100
AcDbSymbolTable
 70
     5
100
AcDbDimStyleTable
  0
DIMSTYLE
105
27
330
A
100
AcDbSymbolTableRecord
100
AcDbDimStyleTableRecord
  2
Standard
 70
     0
178
     0
340
11
  0
DIMSTYLE
105
DA
102
{ACAD_REACTORS
330
D8
102
}
330
A
100
AcDbSymbolTableRecord
100
AcDbDimStyleTableRecord
  2
SLDDIMSTYLE0
 70
     0
 41
0.1175
 44
0.0
 45
0.000000001
 78
    12
 79
     3
140
0.15625
147
0.0390625
148
0.000000001
170
     1
172
     1
173
     1
178
     0
271
     2
272
     2
274
     3
276
     2
284
    12
289
     0
340
D9
  0
DIMSTYLE
105
EF
102
{ACAD_REACTORS
330
EE
330
102
330
115
330
127
330
13A
102
}
330
A
100
AcDbSymbolTableRecord
100
AcDbDimStyleTableRecord
  2
SLDDIMSTYLE1
 70
     0
 41
0.1175
 44
0.0
 45
0.000000001
 78
    12
 79
     3
140
0.15625
147
0.0390625
148
0.000000001
170
     1
173
     1
178
     0
271
     2
272
     2
274
     3
276
     2
284
    12
340
D9
  0
DIMSTYLE
105
14D
102
{ACAD_REACTORS
330
14C
102
}
330
A
100
AcDbSymbolTableRecord
100
AcDbDimStyleTableRecord
  2
SLDDIMSTYLE2
 70
     0
 41
0.1175
 44
0.0
 45
0.000000001
 78
    12
 79
     3
140
0.15625
141
0.0
147
0.0390625
148
0.000000001
170
     1
173
     1
178
     0
271
     2
272
     2
274
     3
276
     2
284
    12
340
D9
  0
DIMSTYLE
105
15F
102
{ACAD_REACTORS
330
15E
102
}
330
A
100
AcDbSymbolTableRecord
100
AcDbDimStyleTableRecord
  2
SLDDIMSTYLE3
 70
     0
 41
0.1175
 44
0.0
 45
0.000000001
 78
     4
 79
     1
140
0.15625
147
0.0390625
148
0.000000001
170
     1
172
     1
173
     1
178
     0
271
     3
272
     3
274
     3
276
     2
284
    12
289
     0
340
D9
  0
ENDTAB
  0
TABLE
  2
BLOCK_RECORD
  5
1
330
0
100
AcDbSymbolTable
 70
    11
  0
BLOCK_RECORD
  5
1F
330
1
100
AcDbSymbolTableRecord
100
AcDbBlockTableRecord
  2
*Model_Space
340
22
  0
BLOCK_RECORD
  5
1B
330
1
100
AcDbSymbolTableRecord
100
AcDbBlockTableRecord
  2
*Paper_Space
340
1E
  0
BLOCK_RECORD
  5
23
330
1
100
AcDbSymbolTableRecord
100
AcDbBlockTableRecord
  2
*Paper_Space0
340
26
  0
BLOCK_RECORD
  5
BA
330
1
100
AcDbSymbolTableRecord
100
AcDbBlockTableRecord
  2
SW_NOTE_0
340
0
102
{BLKREFS
331
C1
102
}
  0
BLOCK_RECORD
  5
CB
330
1
100
AcDbSymbolTableRecord
100
AcDbBlockTableRecord
  2
SW_NOTE_1
340
0
102
{BLKREFS
331
D3
102
}
  0
BLOCK_RECORD
  5
DB
330
1
100
AcDbSymbolTableRecord
100
AcDbBlockTableRecord
  2
_D
340
0
  0
BLOCK_RECORD
  5
F0
330
1
100
AcDbSymbolTableRecord
100
AcDbBlockTableRecord
  2
_D_1
340
0
  0
BLOCK_RECORD
  5
103
330
1
100
AcDbSymbolTableRecord
100
AcDbBlockTableRecord
  2
_D_2
340
0
  0
BLOCK_RECORD
  5
116
330
1
100
AcDbSymbolTableRecord
100
AcDbBlockTableRecord
  2
_D_3
340
0
  0
BLOCK_RECORD
  5
128
330
1
100
AcDbSymbolTableRecord
100
AcDbBlockTableRecord
  2
_D_4
340
0
  0
BLOCK_RECORD
  5
13B
330
1
100
AcDbSymbolTableRecord
100
AcDbBlockTableRecord
  2
_D_5
340
0
  0
BLOCK_RECORD
  5
14E
330
1
100
AcDbSymbolTableRecord
100
AcDbBlockTableRecord
  2
_D_6
340
0
  0
BLOCK_RECORD
  5
160
330
1
100
AcDbSymbolTableRecord
100
AcDbBlockTableRecord
  2
_D_7
340
0
  0
ENDTAB
  0
ENDSEC
  0
SECTION
  2
BLOCKS
  0
BLOCK
  5
20
330
1F
100
AcDbEntity
  8
0
100
AcDbBlockBegin
  2
*Model_Space
 70
     0
 10
0.0
 20
0.0
 30
0.0
  3
*Model_Space
  1

  0
ENDBLK
  5
21
330
1F
100
AcDbEntity
  8
0
100
AcDbBlockEnd
  0
BLOCK
  5
1C
330
1B
100
AcDbEntity
 67
     1
  8
0
100
AcDbBlockBegin
  2
*Paper_Space
 70
     0
 10
0.0
 20
0.0
 30
0.0
  3
*Paper_Space
  1

  0
ENDBLK
  5
1D
330
1B
100
AcDbEntity
 67
     1
  8
0
100
AcDbBlockEnd
  0
BLOCK
  5
24
330
23
100
AcDbEntity
  8
0
100
AcDbBlockBegin
  2
*Paper_Space0
 70
     0
 10
0.0
 20
0.0
 30
0.0
  3
*Paper_Space0
  1

  0
ENDBLK
  5
25
330
23
100
AcDbEntity
  8
0
100
AcDbBlockEnd
  0
BLOCK
  5
BB
330
BA
100
AcDbEntity
  8
0
100
AcDbBlockBegin
  2
SW_NOTE_0
 70
     0
 10
0.0
 20
0.0
 30
0.0
  3
SW_NOTE_0
  1

  0
MTEXT
  5
BE
330
BA
100
AcDbEntity
  8
0
  6
Continuous
 62
     0
370
     0
100
AcDbMText
 10
0.0
 20
0.2014168343
 30
0.0
 40
0.15625
 41
0.0
 71
     1
 72
     1
  1
ALUMINUM 3003-H14 WITH PROTECTIVE
  7
SLDTEXTSTYLE0
 73
     1
 44
1.0
  0
MTEXT
  5
C0
330
BA
100
AcDbEntity
  8
0
  6
Continuous
 62
     0
370
     0
100
AcDbMText
 10
0.0
 20
-0.011690808
 30
0.0
 40
0.15625
 41
0.0
 71
     1
 72
     1
  1
PEEL-OFF FILM ON ONE SIDE
  7
SLDTEXTSTYLE1
 73
     1
 44
1.0
  0
ENDBLK
  5
BC
330
BA
100
AcDbEntity
  8
0
100
AcDbBlockEnd
  0
BLOCK
  5
CC
330
CB
100
AcDbEntity
  8
0
100
AcDbBlockBegin
  2
SW_NOTE_1
 70
     0
 10
0.0
 20
0.0
 30
0.0
  3
SW_NOTE_1
  1

  0
MTEXT
  5
CE
330
CB
100
AcDbEntity
  8
0
  6
Continuous
 62
     0
370
     0
100
AcDbMText
 10
0.0
 20
0.0966800805
 30
0.0
 40
0.075
 41
0.0
 71
     1
 72
     1
  1
THIS MATERIAL IS OWNED BY THE ALLIED MOULDED
  7
SLDTEXTSTYLE2
 73
     1
 44
1.0
  0
MTEXT
  5
CF
330
CB
100
AcDbEntity
  8
0
  6
Continuous
 62
     0
370
     0
100
AcDbMText
 10
0.0
 20
-0.0275325127
 30
0.0
 40
0.075
 41
0.0
 71
     1
 72
     1
  1
PRODUCTS COMPANY, IS DISCLOSED IN CONFIDENCE,
  7
SLDTEXTSTYLE2
 73
     1
 44
1.0
  0
MTEXT
  5
D0
330
CB
100
AcDbEntity
  8
0
  6
Continuous
 62
     0
370
     0
100
AcDbMText
 10
0.0
 20
-0.1517451059
 30
0.0
 40
0.075
 41
0.0
 71
     1
 72
     1
  1
AND IS NOT TO BE REPRODUCED OR DISTRIBUTED
  7
SLDTEXTSTYLE2
 73
     1
 44
1.0
  0
MTEXT
  5
D1
330
CB
100
AcDbEntity
  8
0
  6
Continuous
 62
     0
370
     0
100
AcDbMText
 10
0.0
 20
-0.2759576991
 30
0.0
 40
0.075
 41
0.0
 71
     1
 72
     1
  1
WITHOUT PRIOR WRITTEN PERMISSION FROM
  7
SLDTEXTSTYLE2
 73
     1
 44
1.0
  0
MTEXT
  5
D2
330
CB
100
AcDbEntity
  8
0
  6
Continuous
 62
     0
370
     0
100
AcDbMText
 10
0.0
 20
-0.4001702924
 30
0.0
 40
0.075
 41
0.0
 71
     1
 72
     1
  1
ALLIED MOULDED PRODUCTS.
  7
SLDTEXTSTYLE2
 73
     1
 44
1.0
  0
ENDBLK
  5
CD
330
CB
100
AcDbEntity
  8
0
100
AcDbBlockEnd
  0
BLOCK
  5
DC
330
DB
100
AcDbEntity
  8
0
100
AcDbBlockBegin
  2
_D
 70
     0
 10
0.0
 20
0.0
 30
0.0
  3
_D
  1

  0
SOLID
  5
DE
330
DB
100
AcDbEntity
  8
0
  6
Continuous
 62
   136
370
     0
100
AcDbTrace
 10
3.3428044948
 20
10.9371783268
 30
0.0
 11
3.3678044948
 21
11.0546783268
 31
0.0
 12
3.3178044948
 22
11.0546783268
 32
0.0
 13
3.3178044948
 23
11.0546783268
 33
0.0
  0
SOLID
  5
DF
330
DB
100
AcDbEntity
  8
0
  6
Continuous
 62
   136
370
     0
100
AcDbTrace
 10
3.3428044948
 20
10.6871783268
 30
0.0
 11
3.3178044948
 21
10.5696783268
 31
0.0
 12
3.3678044948
 22
10.5696783268
 32
0.0
 13
3.3678044948
 23
10.5696783268
 33
0.0
  0
LINE
  5
E0
330
DB
100
AcDbEntity
  8
0
  6
Continuous
 62
   136
370
     0
100
AcDbLine
 10
2.3391458961
 20
10.4579263929
 30
0.0
 11
2.2854349603
 21
10.4579263929
 31
0.0
  0
LINE
  5
E1
330
DB
100
AcDbEntity
  8
0
  6
Continuous
 62
   136
370
     0
100
AcDbLine
 10
2.2854349603
 20
10.4579263929
 30
0.0
 11
2.2854349603
 21
10.2181260464
 31
0.0
  0
LINE
  5
E2
330
DB
100
AcDbEntity
  8
0
  6
Continuous
 62
   136
370
     0
100
AcDbLine
 10
2.2854349603
 20
10.2181260464
 30
0.0
 11
2.3391458961
 21
10.2181260464
 31
0.0
  0
LINE
  5
E3
330
DB
100
AcDbEntity
  8
0
  6
Continuous
 62
   136
370
     0
100
AcDbLine
 10
2.7568976494
 20
10.4579263929
 30
0.0
 11
2.8106085852
 21
10.4579263929
 31
0.0
  0
LINE
  5
E4
330
DB
100
AcDbEntity
  8
0
  6
Continuous
 62
   136
370
     0
100
AcDbLine
 10
2.8106085852
 20
10.4579263929
 30
0.0
 11
2.8106085852
 21
10.2181260464
 31
0.0
  0
LINE
  5
E5
330
DB
100
AcDbEntity
  8
0
  6
Continuous
 62
   136
370
     0
100
AcDbLine
 10
2.8106085852
 20
10.2181260464
 30
0.0
 11
2.7568976494
 21
10.2181260464
 31
0.0
  0
LINE
  5
E6
330
DB
100
AcDbEntity
  8
0
  6
Continuous
 62
   136
370
     0
100
AcDbLine
 10
3.7601685977
 20
10.9371783268
 30
0.0
 11
3.1865544948
 21
10.9371783268
 31
0.0
  0
LINE
  5
E7
330
DB
100
AcDbEntity
  8
0
  6
Continuous
 62
   136
370
     0
100
AcDbLine
 10
3.8926685977
 20
10.6871783268
 30
0.0
 11
3.1865544948
 21
10.6871783268
 31
0.0
  0
LINE
  5
E8
330
DB
100
AcDbEntity
  8
0
  6
Continuous
 62
   136
370
     0
100
AcDbLine
 10
3.1865544948
 20
10.3380262196
 30
0.0
 11
3.3428044948
 21
10.3380262196
 31
0.0
  0
LINE
  5
E9
330
DB
100
AcDbEntity
  8
0
  6
Continuous
 62
   136
370
     0
100
AcDbLine
 10
3.3428044948
 20
10.3380262196
 30
0.0
 11
3.3428044948
 21
10.6871783268
 31
0.0
  0
LINE
  5
EA
330
DB
100
AcDbEntity
  8
0
  6
Continuous
 62
   136
370
     0
100
AcDbLine
 10
3.3428044948
 20
10.9371783268
 30
0.0
 11
3.3428044948
 21
11.1721783268
 31
0.0
  0
MTEXT
  5
EB
330
DB
100
AcDbEntity
  8
0
  6
Continuous
 62
   136
370
     0
100
AcDbMText
 10
1.9333299216
 20
10.4195428865
 30
0.0
 40
0.15625
 41
0.0
 71
     1
 72
     1
  1
.25
  7
SLDTEXTSTYLE4
 73
     1
 44
1.0
  0
MTEXT
  5
EC
330
DB
100
AcDbEntity
  8
0
  6
Continuous
 62
   136
370
     0
100
AcDbMText
 10
2.3391458961
 20
10.4195428865
 30
0.0
 40
0.15625
 41
0.0
 71
     1
 72
     1
  1
6.35
  7
SLDTEXTSTYLE4
 73
     1
 44
1.0
  0
MTEXT
  5
ED
330
DB
100
AcDbEntity
  8
0
  6
Continuous
 62
   136
370
     0
100
AcDbMText
 10
2.9229132251
 20
10.4195428865
 30
0.0
 40
0.15625
 41
0.0
 71
     1
 72
     1
  1
2x
  7
SLDTEXTSTYLE4
 73
     1
 44
1.0
  0
ENDBLK
  5
DD
330
DB
100
AcDbEntity
  8
0
100
AcDbBlockEnd
  0
BLOCK
  5
F1
330
F0
100
AcDbEntity
  8
0
100
AcDbBlockBegin
  2
_D_1
 70
     0
 10
0.0
 20
0.0
 30
0.0
  3
_D_1
  1

  0
SOLID
  5
F3
330
F0
100
AcDbEntity
  8
0
  6
Continuous
 62
   136
370
     0
100
AcDbTrace
 10
3.6426685977
 20
11.4293043111
 30
0.0
 11
3.7601685977
 21
11.4043043111
 31
0.0
 12
3.7601685977
 22
11.4543043111
 32
0.0
 13
3.7601685977
 23
11.4543043111
 33
0.0
  0
SOLID
  5
F4
330
F0
100
AcDbEntity
  8
0
  6
Continuous
 62
   136
370
     0
100
AcDbTrace
 10
3.9551685977
 20
11.4293043111
 30
0.0
 11
3.8376685977
 21
11.4543043111
 31
0.0
 12
3.8376685977
 22
11.4043043111
 32
0.0
 13
3.8376685977
 23
11.4043043111
 33
0.0
  0
LINE
  5
F5
330
F0
100
AcDbEntity
  8
0
  6
Continuous
 62
   136
370
     0
100
AcDbLine
 10
2.3570834222
 20
11.5492044843
 30
0.0
 11
2.3033724864
 21
11.5492044843
 31
0.0
  0
LINE
  5
F6
330
F0
100
AcDbEntity
  8
0
  6
Continuous
 62
   136
370
     0
100
AcDbLine
 10
2.3033724864
 20
11.5492044843
 30
0.0
 11
2.3033724864
 21
11.3094041379
 31
0.0
  0
LINE
  5
F7
330
F0
100
AcDbEntity
  8
0
  6
Continuous
 62
   136
370
     0
100
AcDbLine
 10
2.3033724864
 20
11.3094041379
 30
0.0
 11
2.3570834222
 21
11.3094041379
 31
0.0
  0
LINE
  5
F8
330
F0
100
AcDbEntity
  8
0
  6
Continuous
 62
   136
370
     0
100
AcDbLine
 10
2.7748351755
 20
11.5492044843
 30
0.0
 11
2.8285461112
 21
11.5492044843
 31
0.0
  0
LINE
  5
F9
330
F0
100
AcDbEntity
  8
0
  6
Continuous
 62
   136
370
     0
100
AcDbLine
 10
2.8285461112
 20
11.5492044843
 30
0.0
 11
2.8285461112
 21
11.3094041379
 31
0.0
  0
LINE
  5
FA
330
F0
100
AcDbEntity
  8
0
  6
Continuous
 62
   136
370
     0
100
AcDbLine
 10
2.8285461112
 20
11.3094041379
 30
0.0
 11
2.7748351755
 21
11.3094041379
 31
0.0
  0
LINE
  5
FB
330
F0
100
AcDbEntity
  8
0
  6
Continuous
 62
   136
370
     0
100
AcDbLine
 10
3.6426685977
 20
10.8196783268
 30
0.0
 11
3.6426685977
 21
11.5855543111
 31
0.0
  0
LINE
  5
FC
330
F0
100
AcDbEntity
  8
0
  6
Continuous
 62
   136
370
     0
100
AcDbLine
 10
3.9551685977
 20
10.7496783268
 30
0.0
 11
3.9551685977
 21
11.5855543111
 31
0.0
  0
LINE
  5
FD
330
F0
100
AcDbEntity
  8
0
  6
Continuous
 62
   136
370
     0
100
AcDbLine
 10
3.6426685977
 20
11.4293043111
 30
0.0
 11
3.2044920209
 21
11.4293043111
 31
0.0
  0
LINE
  5
FE
330
F0
100
AcDbEntity
  8
0
  6
Continuous
 62
   136
370
     0
100
AcDbLine
 10
3.9551685977
 20
11.4293043111
 30
0.0
 11
3.6426685977
 21
11.4293043111
 31
0.0
  0
MTEXT
  5
FF
330
F0
100
AcDbEntity
  8
0
  6
Continuous
 62
   136
370
     0
100
AcDbMText
 10
1.9512674477
 20
11.5108209779
 30
0.0
 40
0.15625
 41
0.0
 71
     1
 72
     1
  1
.31
  7
SLDTEXTSTYLE4
 73
     1
 44
1.0
  0
MTEXT
  5
100
330
F0
100
AcDbEntity
  8
0
  6
Continuous
 62
   136
370
     0
100
AcDbMText
 10
2.3570834222
 20
11.5108209779
 30
0.0
 40
0.15625
 41
0.0
 71
     1
 72
     1
  1
7.94
  7
SLDTEXTSTYLE4
 73
     1
 44
1.0
  0
MTEXT
  5
101
330
F0
100
AcDbEntity
  8
0
  6
Continuous
 62
   136
370
     0
100
AcDbMText
 10
2.9408507512
 20
11.5108209779
 30
0.0
 40
0.15625
 41
0.0
 71
     1
 72
     1
  1
2x
  7
SLDTEXTSTYLE4
 73
     1
 44
1.0
  0
ENDBLK
  5
F2
330
F0
100
AcDbEntity
  8
0
100
AcDbBlockEnd
  0
BLOCK
  5
104
330
103
100
AcDbEntity
  8
0
100
AcDbBlockBegin
  2
_D_2
 70
     0
 10
0.0
 20
0.0
 30
0.0
  3
_D_2
  1

  0
SOLID
  5
106
330
103
100
AcDbEntity
  8
0
  6
Continuous
 62
   136
370
     0
100
AcDbTrace
 10
3.9551685977
 20
11.7871250347
 30
0.0
 11
4.0726685977
 21
11.7621250347
 31
0.0
 12
4.0726685977
 22
11.8121250347
 32
0.0
 13
4.0726685977
 23
11.8121250347
 33
0.0
  0
SOLID
  5
107
330
103
100
AcDbEntity
  8
0
  6
Continuous
 62
   136
370
     0
100
AcDbTrace
 10
8.2051685977
 20
11.7871250347
 30
0.0
 11
8.0876685977
 21
11.8121250347
 31
0.0
 12
8.0876685977
 22
11.7621250347
 32
0.0
 13
8.0876685977
 23
11.7621250347
 33
0.0
  0
LINE
  5
108
330
103
100
AcDbEntity
  8
0
  6
Continuous
 62
   136
370
     0
100
AcDbLine
 10
6.0039154043
 20
11.9070252079
 30
0.0
 11
5.9502044686
 21
11.9070252079
 31
0.0
  0
LINE
  5
109
330
103
100
AcDbEntity
  8
0
  6
Continuous
 62
   136
370
     0
100
AcDbLine
 10
5.9502044686
 20
11.9070252079
 30
0.0
 11
5.9502044686
 21
11.6672248614
 31
0.0
  0
LINE
  5
10A
330
103
100
AcDbEntity
  8
0
  6
Continuous
 62
   136
370
     0
100
AcDbLine
 10
5.9502044686
 20
11.6672248614
 30
0.0
 11
6.0039154043
 21
11.6672248614
 31
0.0
  0
LINE
  5
10B
330
103
100
AcDbEntity
  8
0
  6
Continuous
 62
   136
370
     0
100
AcDbLine
 10
6.6603824124
 20
11.9070252079
 30
0.0
 11
6.7140933482
 21
11.9070252079
 31
0.0
  0
LINE
  5
10C
330
103
100
AcDbEntity
  8
0
  6
Continuous
 62
   136
370
     0
100
AcDbLine
 10
6.7140933482
 20
11.9070252079
 30
0.0
 11
6.7140933482
 21
11.6672248614
 31
0.0
  0
LINE
  5
10D
330
103
100
AcDbEntity
  8
0
  6
Continuous
 62
   136
370
     0
100
AcDbLine
 10
6.7140933482
 20
11.6672248614
 30
0.0
 11
6.6603824124
 21
11.6672248614
 31
0.0
  0
LINE
  5
10E
330
103
100
AcDbEntity
  8
0
  6
Continuous
 62
   136
370
     0
100
AcDbLine
 10
3.9551685977
 20
10.7496783268
 30
0.0
 11
3.9551685977
 21
11.9433750347
 31
0.0
  0
LINE
  5
10F
330
103
100
AcDbEntity
  8
0
  6
Continuous
 62
   136
370
     0
100
AcDbLine
 10
8.2051685977
 20
10.7496783268
 30
0.0
 11
8.2051685977
 21
11.9433750347
 31
0.0
  0
LINE
  5
110
330
103
100
AcDbEntity
  8
0
  6
Continuous
 62
   136
370
     0
100
AcDbLine
 10
3.9551685977
 20
11.7871250347
 30
0.0
 11
5.4429651756
 21
11.7871250347
 31
0.0
  0
LINE
  5
111
330
103
100
AcDbEntity
  8
0
  6
Continuous
 62
   136
370
     0
100
AcDbLine
 10
8.2051685977
 20
11.7871250347
 30
0.0
 11
7.0900391662
 21
11.7871250347
 31
0.0
  0
MTEXT
  5
112
330
103
100
AcDbEntity
  8
0
  6
Continuous
 62
   136
370
     0
100
AcDbMText
 10
5.4787417795
 20
11.8686417015
 30
0.0
 40
0.15625
 41
0.0
 71
     1
 72
     1
  1
4.25
  7
SLDTEXTSTYLE4
 73
     1
 44
1.0
  0
MTEXT
  5
113
330
103
100
AcDbEntity
  8
0
  6
Continuous
 62
   136
370
     0
100
AcDbMText
 10
6.0039154043
 20
11.8686417015
 30
0.0
 40
0.15625
 41
0.0
 71
     1
 72
     1
  1
107.95
  7
SLDTEXTSTYLE4
 73
     1
 44
1.0
  0
MTEXT
  5
114
330
103
100
AcDbEntity
  8
0
  6
Continuous
 62
   136
370
     0
100
AcDbMText
 10
6.8263979882
 20
11.8686417015
 30
0.0
 40
0.15625
 41
0.0
 71
     1
 72
     1
  1
2x
  7
SLDTEXTSTYLE4
 73
     1
 44
1.0
  0
ENDBLK
  5
105
330
103
100
AcDbEntity
  8
0
100
AcDbBlockEnd
  0
BLOCK
  5
117
330
116
100
AcDbEntity
  8
0
100
AcDbBlockBegin
  2
_D_3
 70
     0
 10
0.0
 20
0.0
 30
0.0
  3
_D_3
  1

  0
SOLID
  5
119
330
116
100
AcDbEntity
  8
0
  6
Continuous
 62
   136
370
     0
100
AcDbTrace
 10
3.6426685977
 20
12.2655234517
 30
0.0
 11
3.7601685977
 21
12.2405234517
 31
0.0
 12
3.7601685977
 22
12.2905234517
 32
0.0
 13
3.7601685977
 23
12.2905234517
 33
0.0
  0
SOLID
  5
11A
330
116
100
AcDbEntity
  8
0
  6
Continuous
 62
   136
370
     0
100
AcDbTrace
 10
8.5176685977
 20
12.2655234517
 30
0.0
 11
8.4001685977
 21
12.2905234517
 31
0.0
 12
8.4001685977
 22
12.2405234517
 32
0.0
 13
8.4001685977
 23
12.2405234517
 33
0.0
  0
LINE
  5
11B
330
116
100
AcDbEntity
  8
0
  6
Continuous
 62
   136
370
     0
100
AcDbLine
 10
6.0616948414
 20
12.3854236249
 30
0.0
 11
6.0079839056
 21
12.3854236249
 31
0.0
  0
LINE
  5
11C
330
116
100
AcDbEntity
  8
0
  6
Continuous
 62
   136
370
     0
100
AcDbLine
 10
6.0079839056
 20
12.3854236249
 30
0.0
 11
6.0079839056
 21
12.1456232784
 31
0.0
  0
LINE
  5
11D
330
116
100
AcDbEntity
  8
0
  6
Continuous
 62
   136
370
     0
100
AcDbLine
 10
6.0079839056
 20
12.1456232784
 30
0.0
 11
6.0616948414
 21
12.1456232784
 31
0.0
  0
LINE
  5
11E
330
116
100
AcDbEntity
  8
0
  6
Continuous
 62
   136
370
     0
100
AcDbLine
 10
6.7181618495
 20
12.3854236249
 30
0.0
 11
6.7718727852
 21
12.3854236249
 31
0.0
  0
LINE
  5
11F
330
116
100
AcDbEntity
  8
0
  6
Continuous
 62
   136
370
     0
100
AcDbLine
 10
6.7718727852
 20
12.3854236249
 30
0.0
 11
6.7718727852
 21
12.1456232784
 31
0.0
  0
LINE
  5
120
330
116
100
AcDbEntity
  8
0
  6
Continuous
 62
   136
370
     0
100
AcDbLine
 10
6.7718727852
 20
12.1456232784
 30
0.0
 11
6.7181618495
 21
12.1456232784
 31
0.0
  0
LINE
  5
121
330
116
100
AcDbEntity
  8
0
  6
Continuous
 62
   136
370
     0
100
AcDbLine
 10
3.6426685977
 20
10.8196783268
 30
0.0
 11
3.6426685977
 21
12.4217734517
 31
0.0
  0
LINE
  5
122
330
116
100
AcDbEntity
  8
0
  6
Continuous
 62
   136
370
     0
100
AcDbLine
 10
8.5176685977
 20
10.8196783268
 30
0.0
 11
8.5176685977
 21
12.4217734517
 31
0.0
  0
LINE
  5
123
330
116
100
AcDbEntity
  8
0
  6
Continuous
 62
   136
370
     0
100
AcDbLine
 10
3.6426685977
 20
12.2655234517
 30
0.0
 11
5.5007446127
 21
12.2655234517
 31
0.0
  0
LINE
  5
124
330
116
100
AcDbEntity
  8
0
  6
Continuous
 62
   136
370
     0
100
AcDbLine
 10
8.5176685977
 20
12.2655234517
 30
0.0
 11
6.8613602791
 21
12.2655234517
 31
0.0
  0
MTEXT
  5
125
330
116
100
AcDbEntity
  8
0
  6
Continuous
 62
   136
370
     0
100
AcDbMText
 10
5.5365212166
 20
12.3470401185
 30
0.0
 40
0.15625
 41
0.0
 71
     1
 72
     1
  1
4.88
  7
SLDTEXTSTYLE4
 73
     1
 44
1.0
  0
MTEXT
  5
126
330
116
100
AcDbEntity
  8
0
  6
Continuous
 62
   136
370
     0
100
AcDbMText
 10
6.0616948414
 20
12.3470401185
 30
0.0
 40
0.15625
 41
0.0
 71
     1
 72
     1
  1
123.83
  7
SLDTEXTSTYLE4
 73
     1
 44
1.0
  0
ENDBLK
  5
118
330
116
100
AcDbEntity
  8
0
100
AcDbBlockEnd
  0
BLOCK
  5
129
330
128
100
AcDbEntity
  8
0
100
AcDbBlockBegin
  2
_D_4
 70
     0
 10
0.0
 20
0.0
 30
0.0
  3
_D_4
  1

  0
SOLID
  5
12B
330
128
100
AcDbEntity
  8
0
  6
Continuous
 62
   136
370
     0
100
AcDbTrace
 10
9.3050701725
 20
10.6871783268
 30
0.0
 11
9.2800701725
 21
10.5696783268
 31
0.0
 12
9.3300701725
 22
10.5696783268
 32
0.0
 13
9.3300701725
 23
10.5696783268
 33
0.0
  0
SOLID
  5
12C
330
128
100
AcDbEntity
  8
0
  6
Continuous
 62
   136
370
     0
100
AcDbTrace
 10
9.3050701725
 20
4.4371783268
 30
0.0
 11
9.3300701725
 21
4.5546783268
 31
0.0
 12
9.2800701725
 22
4.5546783268
 32
0.0
 13
9.2800701725
 23
4.5546783268
 33
0.0
  0
LINE
  5
12D
330
128
100
AcDbEntity
  8
0
  6
Continuous
 62
   136
370
     0
100
AcDbLine
 10
9.185712568
 20
8.2927614024
 30
0.0
 11
9.1320016322
 21
8.2927614024
 31
0.0
  0
LINE
  5
12E
330
128
100
AcDbEntity
  8
0
  6
Continuous
 62
   136
370
     0
100
AcDbLine
 10
9.1320016322
 20
8.2927614024
 30
0.0
 11
9.1320016322
 21
8.0529610559
 31
0.0
  0
LINE
  5
12F
330
128
100
AcDbEntity
  8
0
  6
Continuous
 62
   136
370
     0
100
AcDbLine
 10
9.1320016322
 20
8.0529610559
 30
0.0
 11
9.185712568
 21
8.0529610559
 31
0.0
  0
LINE
  5
130
330
128
100
AcDbEntity
  8
0
  6
Continuous
 62
   136
370
     0
100
AcDbLine
 10
9.8421795761
 20
8.2927614024
 30
0.0
 11
9.8958905119
 21
8.2927614024
 31
0.0
  0
LINE
  5
131
330
128
100
AcDbEntity
  8
0
  6
Continuous
 62
   136
370
     0
100
AcDbLine
 10
9.8958905119
 20
8.2927614024
 30
0.0
 11
9.8958905119
 21
8.0529610559
 31
0.0
  0
LINE
  5
132
330
128
100
AcDbEntity
  8
0
  6
Continuous
 62
   136
370
     0
100
AcDbLine
 10
9.8958905119
 20
8.0529610559
 30
0.0
 11
9.8421795761
 21
8.0529610559
 31
0.0
  0
LINE
  5
133
330
128
100
AcDbEntity
  8
0
  6
Continuous
 62
   136
370
     0
100
AcDbLine
 10
8.2676685977
 20
10.6871783268
 30
0.0
 11
9.4613201725
 21
10.6871783268
 31
0.0
  0
LINE
  5
134
330
128
100
AcDbEntity
  8
0
  6
Continuous
 62
   136
370
     0
100
AcDbLine
 10
8.2676685977
 20
4.4371783268
 30
0.0
 11
9.4613201725
 21
4.4371783268
 31
0.0
  0
LINE
  5
135
330
128
100
AcDbEntity
  8
0
  6
Continuous
 62
   136
370
     0
100
AcDbLine
 10
9.3050701725
 20
10.6871783268
 30
0.0
 11
9.3050701725
 21
8.3285686929
 31
0.0
  0
LINE
  5
136
330
128
100
AcDbEntity
  8
0
  6
Continuous
 62
   136
370
     0
100
AcDbLine
 10
9.3050701725
 20
4.4371783268
 30
0.0
 11
9.3050701725
 21
7.7773534189
 31
0.0
  0
MTEXT
  5
137
330
128
100
AcDbEntity
  8
0
  6
Continuous
 62
   136
370
     0
100
AcDbMText
 10
8.6605389432
 20
8.254377896
 30
0.0
 40
0.15625
 41
0.0
 71
     1
 72
     1
  1
6.25
  7
SLDTEXTSTYLE4
 73
     1
 44
1.0
  0
MTEXT
  5
138
330
128
100
AcDbEntity
  8
0
  6
Continuous
 62
   136
370
     0
100
AcDbMText
 10
9.185712568
 20
8.254377896
 30
0.0
 40
0.15625
 41
0.0
 71
     1
 72
     1
  1
158.75
  7
SLDTEXTSTYLE4
 73
     1
 44
1.0
  0
MTEXT
  5
139
330
128
100
AcDbEntity
  8
0
  6
Continuous
 62
   136
370
     0
100
AcDbMText
 10
9.1916804116
 20
7.978770259
 30
0.0
 40
0.15625
 41
0.0
 71
     1
 72
     1
  1
2x
  7
SLDTEXTSTYLE4
 73
     1
 44
1.0
  0
ENDBLK
  5
12A
330
128
100
AcDbEntity
  8
0
100
AcDbBlockEnd
  0
BLOCK
  5
13C
330
13B
100
AcDbEntity
  8
0
100
AcDbBlockBegin
  2
_D_5
 70
     0
 10
0.0
 20
0.0
 30
0.0
  3
_D_5
  1

  0
SOLID
  5
13E
330
13B
100
AcDbEntity
  8
0
  6
Continuous
 62
   136
370
     0
100
AcDbTrace
 10
10.1908969442
 20
10.9371783268
 30
0.0
 11
10.1658969442
 21
10.8196783268
 31
0.0
 12
10.2158969442
 22
10.8196783268
 32
0.0
 13
10.2158969442
 23
10.8196783268
 33
0.0
  0
SOLID
  5
13F
330
13B
100
AcDbEntity
  8
0
  6
Continuous
 62
   136
370
     0
100
AcDbTrace
 10
10.1908969442
 20
4.1871783268
 30
0.0
 11
10.2158969442
 21
4.3046783268
 31
0.0
 12
10.1658969442
 22
4.3046783268
 32
0.0
 13
10.1658969442
 23
4.3046783268
 33
0.0
  0
LINE
  5
140
330
13B
100
AcDbEntity
  8
0
  6
Continuous
 62
   136
370
     0
100
AcDbLine
 10
10.0715393397
 20
7.0400317326
 30
0.0
 11
10.0178284039
 21
7.0400317326
 31
0.0
  0
LINE
  5
141
330
13B
100
AcDbEntity
  8
0
  6
Continuous
 62
   136
370
     0
100
AcDbLine
 10
10.0178284039
 20
7.0400317326
 30
0.0
 11
10.0178284039
 21
6.8002313861
 31
0.0
  0
LINE
  5
142
330
13B
100
AcDbEntity
  8
0
  6
Continuous
 62
   136
370
     0
100
AcDbLine
 10
10.0178284039
 20
6.8002313861
 30
0.0
 11
10.0715393397
 21
6.8002313861
 31
0.0
  0
LINE
  5
143
330
13B
100
AcDbEntity
  8
0
  6
Continuous
 62
   136
370
     0
100
AcDbLine
 10
10.7280063478
 20
7.0400317326
 30
0.0
 11
10.7817172835
 21
7.0400317326
 31
0.0
  0
LINE
  5
144
330
13B
100
AcDbEntity
  8
0
  6
Continuous
 62
   136
370
     0
100
AcDbLine
 10
10.7817172835
 20
7.0400317326
 30
0.0
 11
10.7817172835
 21
6.8002313861
 31
0.0
  0
LINE
  5
145
330
13B
100
AcDbEntity
  8
0
  6
Continuous
 62
   136
370
     0
100
AcDbLine
 10
10.7817172835
 20
6.8002313861
 30
0.0
 11
10.7280063478
 21
6.8002313861
 31
0.0
  0
LINE
  5
146
330
13B
100
AcDbEntity
  8
0
  6
Continuous
 62
   136
370
     0
100
AcDbLine
 10
8.4001685977
 20
10.9371783268
 30
0.0
 11
10.3471469442
 21
10.9371783268
 31
0.0
  0
LINE
  5
147
330
13B
100
AcDbEntity
  8
0
  6
Continuous
 62
   136
370
     0
100
AcDbLine
 10
8.4001685977
 20
4.1871783268
 30
0.0
 11
10.3471469442
 21
4.1871783268
 31
0.0
  0
LINE
  5
148
330
13B
100
AcDbEntity
  8
0
  6
Continuous
 62
   136
370
     0
100
AcDbLine
 10
10.1908969442
 20
10.9371783268
 30
0.0
 11
10.1908969442
 21
7.0758390231
 31
0.0
  0
LINE
  5
149
330
13B
100
AcDbEntity
  8
0
  6
Continuous
 62
   136
370
     0
100
AcDbLine
 10
10.1908969442
 20
4.1871783268
 30
0.0
 11
10.1908969442
 21
6.7644240956
 31
0.0
  0
MTEXT
  5
14A
330
13B
100
AcDbEntity
  8
0
  6
Continuous
 62
   136
370
     0
100
AcDbMText
 10
9.5463657148
 20
7.0016482262
 30
0.0
 40
0.15625
 41
0.0
 71
     1
 72
     1
  1
6.75
  7
SLDTEXTSTYLE4
 73
     1
 44
1.0
  0
MTEXT
  5
14B
330
13B
100
AcDbEntity
  8
0
  6
Continuous
 62
   136
370
     0
100
AcDbMText
 10
10.0715393397
 20
7.0016482262
 30
0.0
 40
0.15625
 41
0.0
 71
     1
 72
     1
  1
171.45
  7
SLDTEXTSTYLE4
 73
     1
 44
1.0
  0
ENDBLK
  5
13D
330
13B
100
AcDbEntity
  8
0
100
AcDbBlockEnd
  0
BLOCK
  5
14F
330
14E
100
AcDbEntity
  8
0
100
AcDbBlockBegin
  2
_D_6
 70
     0
 10
0.0
 20
0.0
 30
0.0
  3
_D_6
  1

  0
SOLID
  5
151
330
14E
100
AcDbEntity
  8
0
  6
Continuous
 62
   136
370
     0
100
AcDbTrace
 10
4.0220746596
 20
4.3315914958
 30
0.0
 11
4.0638489915
 21
4.2189586623
 31
0.0
 12
4.1060837239
 22
4.245721087
 32
0.0
 13
4.1060837239
 23
4.245721087
 33
0.0
  0
LINE
  5
152
330
14E
100
AcDbEntity
  8
0
  6
Continuous
 62
   136
370
     0
100
AcDbLine
 10
5.2342145671
 20
3.9408099082
 30
0.0
 11
5.1805036313
 21
3.9408099082
 31
0.0
  0
LINE
  5
153
330
14E
100
AcDbEntity
  8
0
  6
Continuous
 62
   136
370
     0
100
AcDbLine
 10
5.1805036313
 20
3.9408099082
 30
0.0
 11
5.1805036313
 21
3.7010095617
 31
0.0
  0
LINE
  5
154
330
14E
100
AcDbEntity
  8
0
  6
Continuous
 62
   136
370
     0
100
AcDbLine
 10
5.1805036313
 20
3.7010095617
 30
0.0
 11
5.2342145671
 21
3.7010095617
 31
0.0
  0
LINE
  5
155
330
14E
100
AcDbEntity
  8
0
  6
Continuous
 62
   136
370
     0
100
AcDbLine
 10
5.6519663203
 20
3.9408099082
 30
0.0
 11
5.7056772561
 21
3.9408099082
 31
0.0
  0
LINE
  5
156
330
14E
100
AcDbEntity
  8
0
  6
Continuous
 62
   136
370
     0
100
AcDbLine
 10
5.7056772561
 20
3.9408099082
 30
0.0
 11
5.7056772561
 21
3.7010095617
 31
0.0
  0
LINE
  5
157
330
14E
100
AcDbEntity
  8
0
  6
Continuous
 62
   136
370
     0
100
AcDbLine
 10
5.7056772561
 20
3.7010095617
 30
0.0
 11
5.6519663203
 21
3.7010095617
 31
0.0
  0
LINE
  5
158
330
14E
100
AcDbEntity
  8
0
  6
Continuous
 62
   136
370
     0
100
AcDbLine
 10
4.0220746596
 20
4.3315914958
 30
0.0
 11
4.4443382909
 21
3.6652022712
 31
0.0
  0
LINE
  5
159
330
14E
100
AcDbEntity
  8
0
  6
Continuous
 62
   136
370
     0
100
AcDbLine
 10
4.4443382909
 20
3.6652022712
 30
0.0
 11
4.6005882909
 21
3.6652022712
 31
0.0
  0
MTEXT
  5
15A
330
14E
100
AcDbEntity
  8
0
  6
Continuous
 62
   136
370
     0
100
AcDbMText
 10
4.6005882909
 20
3.9019923737
 30
0.0
 40
0.15625
 41
0.0
 71
     1
 72
     1
  1
%%c
  7
SLDTEXTSTYLE4
 73
     1
 44
1.0
  0
MTEXT
  5
15B
330
14E
100
AcDbEntity
  8
0
  6
Continuous
 62
   136
370
     0
100
AcDbMText
 10
4.8283986155
 20
3.9024264018
 30
0.0
 40
0.15625
 41
0.0
 71
     1
 72
     1
  1
.25
  7
SLDTEXTSTYLE4
 73
     1
 44
1.0
  0
MTEXT
  5
15C
330
14E
100
AcDbEntity
  8
0
  6
Continuous
 62
   136
370
     0
100
AcDbMText
 10
5.2342145671
 20
3.9024264018
 30
0.0
 40
0.15625
 41
0.0
 71
     1
 72
     1
  1
6.35
  7
SLDTEXTSTYLE4
 73
     1
 44
1.0
  0
MTEXT
  5
15D
330
14E
100
AcDbEntity
  8
0
  6
Continuous
 62
   136
370
     0
100
AcDbMText
 10
5.0665985034
 20
3.6268187648
 30
0.0
 40
0.15625
 41
0.0
 71
     1
 72
     1
  1
4x
  7
SLDTEXTSTYLE4
 73
     1
 44
1.0
  0
ENDBLK
  5
150
330
14E
100
AcDbEntity
  8
0
100
AcDbBlockEnd
  0
BLOCK
  5
161
330
160
100
AcDbEntity
  8
0
100
AcDbBlockBegin
  2
_D_7
 70
     0
 10
0.0
 20
0.0
 30
0.0
  3
_D_7
  1

  0
SOLID
  5
163
330
160
100
AcDbEntity
  8
0
  6
Continuous
 62
   136
370
     0
100
AcDbTrace
 10
12.7007786329
 20
11.2558249024
 30
0.0
 11
12.8182786329
 21
11.2308249024
 31
0.0
 12
12.8182786329
 22
11.2808249024
 32
0.0
 13
12.8182786329
 23
11.2808249024
 33
0.0
  0
SOLID
  5
164
330
160
100
AcDbEntity
  8
0
  6
Continuous
 62
   136
370
     0
100
AcDbTrace
 10
12.6007786329
 20
11.2558249024
 30
0.0
 11
12.4832786329
 21
11.2808249024
 31
0.0
 12
12.4832786329
 22
11.2308249024
 32
0.0
 13
12.4832786329
 23
11.2308249024
 33
0.0
  0
LINE
  5
165
330
160
100
AcDbEntity
  8
0
  6
Continuous
 62
   136
370
     0
100
AcDbLine
 10
13.5727634786
 20
11.3577382362
 30
0.0
 11
13.5727634786
 21
11.1539115687
 31
0.0
  0
LINE
  5
166
330
160
100
AcDbEntity
  8
0
  6
Continuous
 62
   136
370
     0
100
AcDbLine
 10
13.5727634786
 20
11.1539115687
 30
0.0
 11
13.6085400824
 21
11.1539115687
 31
0.0
  0
LINE
  5
167
330
160
100
AcDbEntity
  8
0
  6
Continuous
 62
   136
370
     0
100
AcDbLine
 10
13.5727634786
 20
11.3577382362
 30
0.0
 11
13.6085400824
 21
11.3577382362
 31
0.0
  0
LINE
  5
168
330
160
100
AcDbEntity
  8
0
  6
Continuous
 62
   136
370
     0
100
AcDbLine
 10
14.1336206578
 20
11.3577382362
 30
0.0
 11
14.1336206578
 21
11.1539115687
 31
0.0
  0
LINE
  5
169
330
160
100
AcDbEntity
  8
0
  6
Continuous
 62
   136
370
     0
100
AcDbLine
 10
14.1336206578
 20
11.1539115687
 30
0.0
 11
14.0978440539
 21
11.1539115687
 31
0.0
  0
LINE
  5
16A
330
160
100
AcDbEntity
  8
0
  6
Continuous
 62
   136
370
     0
100
AcDbLine
 10
14.1336206578
 20
11.3577382362
 30
0.0
 11
14.0978440539
 21
11.3577382362
 31
0.0
  0
LINE
  5
16B
330
160
100
AcDbEntity
  8
0
  6
Continuous
 62
   136
370
     0
100
AcDbLine
 10
12.7007786329
 20
10.8196783268
 30
0.0
 11
12.7007786329
 21
11.4120749024
 31
0.0
  0
LINE
  5
16C
330
160
100
AcDbEntity
  8
0
  6
Continuous
 62
   136
370
     0
100
AcDbLine
 10
12.6007786329
 20
10.8196783268
 30
0.0
 11
12.6007786329
 21
11.4120749024
 31
0.0
  0
LINE
  5
16D
330
160
100
AcDbEntity
  8
0
  6
Continuous
 62
   136
370
     0
100
AcDbLine
 10
12.7007786329
 20
11.2558249024
 30
0.0
 11
12.9695579032
 21
11.2558249024
 31
0.0
  0
LINE
  5
16E
330
160
100
AcDbEntity
  8
0
  6
Continuous
 62
   136
370
     0
100
AcDbLine
 10
12.6007786329
 20
11.2558249024
 30
0.0
 11
12.3657786329
 21
11.2558249024
 31
0.0
  0
MTEXT
  5
16F
330
160
100
AcDbEntity
  8
0
  6
Continuous
 62
   136
370
     0
100
AcDbMText
 10
13.0834595071
 20
11.3373437028
 30
0.0
 40
0.15625
 41
0.0
 71
     1
 72
     1
  1
.100
  7
SLDTEXTSTYLE4
 73
     1
 44
1.0
  0
MTEXT
  5
170
330
160
100
AcDbEntity
  8
0
  6
Continuous
 62
   136
370
     0
100
AcDbMText
 10
13.6443166863
 20
11.3373437028
 30
0.0
 40
0.15625
 41
0.0
 71
     1
 72
     1
  1
2.54
  7
SLDTEXTSTYLE4
 73
     1
 44
1.0
  0
ENDBLK
  5
162
330
160
100
AcDbEntity
  8
0
100
AcDbBlockEnd
  0
ENDSEC
  0
SECTION
  2
ENTITIES
  0
LINE
  5
73
330
1F
100
AcDbEntity
  8
0
  6
Continuous
 62
     7
370
     0
100
AcDbLine
 10
0.7828145058
 20
13.3025914634
 30
0.0
 11
20.4703145058
 21
13.3025914634
 31
0.0
  0
LINE
  5
74
330
1F
100
AcDbEntity
  8
0
  6
Continuous
 62
     7
370
     0
100
AcDbLine
 10
0.7828145058
 20
13.3025914634
 30
0.0
 11
0.7828145058
 21
0.4900914634
 31
0.0
  0
LINE
  5
75
330
1F
100
AcDbEntity
  8
0
  6
Continuous
 62
     7
370
     0
100
AcDbLine
 10
20.4703145058
 20
0.4900914634
 30
0.0
 11
0.7828145058
 21
0.4900914634
 31
0.0
  0
LINE
  5
76
330
1F
100
AcDbEntity
  8
0
  6
Continuous
 62
     7
370
     0
100
AcDbLine
 10
20.4703145058
 20
0.4900914634
 30
0.0
 11
20.4703145058
 21
13.3025914634
 31
0.0
  0
LINE
  5
77
330
1F
100
AcDbEntity
  8
0
  6
Continuous
 62
     7
370
     0
100
AcDbLine
 10
14.8453145058
 20
1.4275914634
 30
0.0
 11
12.1890645058
 21
1.4275914634
 31
0.0
  0
LINE
  5
78
330
1F
100
AcDbEntity
  8
0
  6
Continuous
 62
     7
370
     0
100
AcDbLine
 10
12.1890645058
 20
0.4900914634
 30
0.0
 11
12.1890645058
 21
1.4275914634
 31
0.0
  0
LINE
  5
79
330
1F
100
AcDbEntity
  8
0
  6
Continuous
 62
     7
370
     0
100
AcDbLine
 10
12.1890645058
 20
0.4900914634
 30
0.0
 11
14.8453145058
 21
0.4900914634
 31
0.0
  0
LINE
  5
7A
330
1F
100
AcDbEntity
  8
0
  6
Continuous
 62
     7
370
     0
100
AcDbLine
 10
14.8453145058
 20
2.2088414634
 30
0.0
 11
20.4703145058
 21
2.2088414634
 31
0.0
  0
LINE
  5
7B
330
1F
100
AcDbEntity
  8
0
  6
Continuous
 62
     7
370
     0
100
AcDbLine
 10
14.8894481929
 20
3.0863414634
 30
0.0
 11
14.8894481929
 21
2.2688414634
 31
0.0
  0
LINE
  5
7C
330
1F
100
AcDbEntity
  8
0
  6
Continuous
 62
     7
370
     0
100
AcDbLine
 10
14.8894481929
 20
2.2688414634
 30
0.0
 11
16.6061759261
 21
2.2688414634
 31
0.0
  0
LINE
  5
7D
330
1F
100
AcDbEntity
  8
0
  6
Continuous
 62
     7
370
     0
100
AcDbLine
 10
16.6061759261
 20
2.2688414634
 30
0.0
 11
16.6061759261
 21
3.0863414634
 31
0.0
  0
LINE
  5
7E
330
1F
100
AcDbEntity
  8
0
  6
Continuous
 62
     7
370
     0
100
AcDbLine
 10
16.6061759261
 20
3.0863414634
 30
0.0
 11
14.8894481929
 21
3.0863414634
 31
0.0
  0
LINE
  5
7F
330
1F
100
AcDbEntity
  8
0
  6
Continuous
 62
     7
370
     0
100
AcDbLine
 10
14.9505033122
 20
2.3492947121
 30
0.0
 11
15.4330033122
 21
3.0030447121
 31
0.0
  0
LINE
  5
80
330
1F
100
AcDbEntity
  8
0
  6
Continuous
 62
     7
370
     0
100
AcDbLine
 10
15.4330033122
 20
3.0030447121
 30
0.0
 11
15.9155033122
 21
2.3492947121
 31
0.0
  0
LINE
  5
81
330
1F
100
AcDbEntity
  8
0
  6
Continuous
 62
     7
370
     0
100
AcDbLine
 10
15.1213974693
 20
2.3492947121
 30
0.0
 11
15.4330033122
 21
2.771496411
 31
0.0
  0
LINE
  5
82
330
1F
100
AcDbEntity
  8
0
  6
Continuous
 62
     7
370
     0
100
AcDbLine
 10
15.4330033122
 20
2.771496411
 30
0.0
 11
15.744609155
 21
2.3492947121
 31
0.0
  0
LINE
  5
83
330
1F
100
AcDbEntity
  8
0
  6
Continuous
 62
     7
370
     0
100
AcDbLine
 10
14.9505033122
 20
2.3492947121
 30
0.0
 11
15.1213974693
 21
2.3492947121
 31
0.0
  0
LINE
  5
84
330
1F
100
AcDbEntity
  8
0
  6
Continuous
 62
     7
370
     0
100
AcDbLine
 10
15.744609155
 20
2.3492947121
 30
0.0
 11
15.9155033122
 21
2.3492947121
 31
0.0
  0
LINE
  5
85
330
1F
100
AcDbEntity
  8
0
  6
Continuous
 62
     7
370
     0
100
AcDbLine
 10
14.9826932022
 20
2.3655447121
 30
0.0
 11
15.4330033122
 21
2.9756799129
 31
0.0
  0
LINE
  5
86
330
1F
100
AcDbEntity
  8
0
  6
Continuous
 62
     7
370
     0
100
AcDbLine
 10
15.4330033122
 20
2.9756799129
 30
0.0
 11
15.8833134221
 21
2.3655447121
 31
0.0
  0
LINE
  5
87
330
1F
100
AcDbEntity
  8
0
  6
Continuous
 62
     7
370
     0
100
AcDbLine
 10
14.8453145058
 20
0.4900914634
 30
0.0
 11
14.8453145058
 21
1.4275914634
 31
0.0
  0
LINE
  5
88
330
1F
100
AcDbEntity
  8
0
  6
Continuous
 62
     7
370
     0
100
AcDbLine
 10
14.8453145058
 20
3.1463414634
 30
0.0
 11
20.4703145058
 21
3.1463414634
 31
0.0
  0
LINE
  5
89
330
1F
100
AcDbEntity
  8
0
  6
Continuous
 62
     7
370
     0
100
AcDbLine
 10
14.8453145058
 20
3.1463414634
 30
0.0
 11
14.8453145058
 21
0.4900914634
 31
0.0
  0
LINE
  5
8A
330
1F
100
AcDbEntity
  8
0
  6
Continuous
 62
     7
370
     0
100
AcDbLine
 10
15.0028897844
 20
2.3655447121
 30
0.0
 11
15.4330033122
 21
2.9483151136
 31
0.0
  0
LINE
  5
8B
330
1F
100
AcDbEntity
  8
0
  6
Continuous
 62
     7
370
     0
100
AcDbLine
 10
15.4330033122
 20
2.9483151136
 30
0.0
 11
15.8631168399
 21
2.3655447121
 31
0.0
  0
LINE
  5
8C
330
1F
100
AcDbEntity
  8
0
  6
Continuous
 62
     7
370
     0
100
AcDbLine
 10
17.5384116354
 20
13.3025914634
 30
0.0
 11
17.5384116354
 21
12.8615647344
 31
0.0
  0
LINE
  5
8D
330
1F
100
AcDbEntity
  8
0
  6
Continuous
 62
     7
370
     0
100
AcDbLine
 10
14.8453145058
 20
1.4275914634
 30
0.0
 11
20.4703145058
 21
1.4275914634
 31
0.0
  0
LINE
  5
8E
330
1F
100
AcDbEntity
  8
0
  6
Continuous
 62
     7
370
     0
100
AcDbLine
 10
15.0230863666
 20
2.3655447121
 30
0.0
 11
15.4330033122
 21
2.9209503144
 31
0.0
  0
LINE
  5
8F
330
1F
100
AcDbEntity
  8
0
  6
Continuous
 62
     7
370
     0
100
AcDbLine
 10
15.4330033122
 20
2.9209503144
 30
0.0
 11
15.8429202577
 21
2.3655447121
 31
0.0
  0
LINE
  5
90
330
1F
100
AcDbEntity
  8
0
  6
Continuous
 62
     7
370
     0
100
AcDbLine
 10
15.1131941949
 20
2.3655447121
 30
0.0
 11
15.4330033122
 21
2.7988612103
 31
0.0
  0
LINE
  5
91
330
1F
100
AcDbEntity
  8
0
  6
Continuous
 62
     7
370
     0
100
AcDbLine
 10
15.4330033122
 20
2.7988612103
 30
0.0
 11
15.7528124294
 21
2.3655447121
 31
0.0
  0
LINE
  5
92
330
1F
100
AcDbEntity
  8
0
  6
Continuous
 62
     7
370
     0
100
AcDbLine
 10
10.9390645058
 20
0.4900914634
 30
0.0
 11
14.8453145058
 21
0.4900914634
 31
0.0
  0
LINE
  5
93
330
1F
100
AcDbEntity
  8
0
  6
Continuous
 62
     7
370
     0
100
AcDbLine
 10
15.0929976127
 20
2.3655447121
 30
0.0
 11
15.4330033122
 21
2.8262260095
 31
0.0
  0
LINE
  5
94
330
1F
100
AcDbEntity
  8
0
  6
Continuous
 62
     7
370
     0
100
AcDbLine
 10
15.4330033122
 20
2.8262260095
 30
0.0
 11
15.7730090116
 21
2.3655447121
 31
0.0
  0
LINE
  5
95
330
1F
100
AcDbEntity
  8
0
  6
Continuous
 62
     7
370
     0
100
AcDbLine
 10
15.0728010305
 20
2.3655447121
 30
0.0
 11
15.4330033122
 21
2.8535908087
 31
0.0
  0
LINE
  5
96
330
1F
100
AcDbEntity
  8
0
  6
Continuous
 62
     7
370
     0
100
AcDbLine
 10
15.4330033122
 20
2.8535908087
 30
0.0
 11
15.7932055938
 21
2.3655447121
 31
0.0
  0
LINE
  5
97
330
1F
100
AcDbEntity
  8
0
  6
Continuous
 62
     7
370
     0
100
AcDbLine
 10
15.0526044483
 20
2.3655447121
 30
0.0
 11
15.4330033122
 21
2.8809556079
 31
0.0
  0
LINE
  5
98
330
1F
100
AcDbEntity
  8
0
  6
Continuous
 62
     7
370
     0
100
AcDbLine
 10
15.813402176
 20
2.3655447121
 30
0.0
 11
15.4330033122
 21
2.8809556079
 31
0.0
  0
LINE
  5
99
330
1F
100
AcDbEntity
  8
0
  6
Continuous
 62
     7
370
     0
100
AcDbLine
 10
17.5384116354
 20
12.8615647344
 30
0.0
 11
20.4703145058
 21
12.8615647344
 31
0.0
  0
LINE
  5
9A
330
1F
100
AcDbEntity
  8
0
  6
Continuous
 62
     7
370
     0
100
AcDbLine
 10
15.0374194868
 20
2.3655447121
 30
0.0
 11
15.433528781
 21
2.9012685903
 31
0.0
  0
LINE
  5
9B
330
1F
100
AcDbEntity
  8
0
  6
Continuous
 62
     7
370
     0
100
AcDbLine
 10
15.433528781
 20
2.9012685903
 30
0.0
 11
15.8289196357
 21
2.3655447121
 31
0.0
  0
LINE
  5
9C
330
1F
100
AcDbEntity
  8
0
  6
Continuous
 62
     7
370
     0
100
AcDbLine
 10
15.7820481855
 20
2.6122104342
 30
0.0
 11
16.0705033122
 21
3.0030447121
 31
0.0
  0
LINE
  5
9D
330
1F
100
AcDbEntity
  8
0
  6
Continuous
 62
     7
370
     0
100
AcDbLine
 10
15.8022447677
 20
2.6122104342
 30
0.0
 11
16.0705033122
 21
2.9756799129
 31
0.0
  0
LINE
  5
9E
330
1F
100
AcDbEntity
  8
0
  6
Continuous
 62
     7
370
     0
100
AcDbLine
 10
15.8123430588
 20
2.5985280346
 30
0.0
 11
16.0705033122
 21
2.9483151136
 31
0.0
  0
LINE
  5
9F
330
1F
100
AcDbEntity
  8
0
  6
Continuous
 62
     7
370
     0
100
AcDbLine
 10
15.8372003907
 20
2.5648482817
 30
0.0
 11
16.0705033122
 21
2.8809556079
 31
0.0
  0
LINE
  5
A0
330
1F
100
AcDbEntity
  8
0
  6
Continuous
 62
     7
370
     0
100
AcDbLine
 10
15.8472986818
 20
2.5511658821
 30
0.0
 11
16.0705033122
 21
2.8535908087
 31
0.0
  0
LINE
  5
A1
330
1F
100
AcDbEntity
  8
0
  6
Continuous
 62
     7
370
     0
100
AcDbLine
 10
15.8224413499
 20
2.584845635
 30
0.0
 11
16.0705033122
 21
2.9209503144
 31
0.0
  0
LINE
  5
A2
330
1F
100
AcDbEntity
  8
0
  6
Continuous
 62
     7
370
     0
100
AcDbLine
 10
15.8297483196
 20
2.5749452589
 30
0.0
 11
16.071028781
 21
2.9012685903
 31
0.0
  0
LINE
  5
A3
330
1F
100
AcDbEntity
  8
0
  6
Continuous
 62
     7
370
     0
100
AcDbLine
 10
15.7304976127
 20
2.3655447121
 30
0.0
 11
15.73155673
 21
2.3669797336
 31
0.0
  0
LINE
  5
A4
330
1F
100
AcDbEntity
  8
0
  6
Continuous
 62
     7
370
     0
100
AcDbLine
 10
15.7506941949
 20
2.3655447121
 30
0.0
 11
15.7517533122
 21
2.3669797336
 31
0.0
  0
LINE
  5
A5
330
1F
100
AcDbEntity
  8
0
  6
Continuous
 62
     7
370
     0
100
AcDbLine
 10
15.8674952641
 20
2.4964362837
 30
0.0
 11
16.0705033122
 21
2.771496411
 31
0.0
  0
LINE
  5
A6
330
1F
100
AcDbEntity
  8
0
  6
Continuous
 62
     7
370
     0
100
AcDbLine
 10
16.0705033122
 20
2.771496411
 30
0.0
 11
16.382109155
 21
2.3492947121
 31
0.0
  0
LINE
  5
A7
330
1F
100
AcDbEntity
  8
0
  6
Continuous
 62
     7
370
     0
100
AcDbLine
 10
16.0705033122
 20
2.7988612103
 30
0.0
 11
16.3903124294
 21
2.3655447121
 31
0.0
  0
LINE
  5
A8
330
1F
100
AcDbEntity
  8
0
  6
Continuous
 62
     7
370
     0
100
AcDbLine
 10
16.0705033122
 20
2.8262260095
 30
0.0
 11
16.4105090116
 21
2.3655447121
 31
0.0
  0
LINE
  5
A9
330
1F
100
AcDbEntity
  8
0
  6
Continuous
 62
     7
370
     0
100
AcDbLine
 10
16.0705033122
 20
2.8535908087
 30
0.0
 11
16.4307055938
 21
2.3655447121
 31
0.0
  0
LINE
  5
AA
330
1F
100
AcDbEntity
  8
0
  6
Continuous
 62
     7
370
     0
100
AcDbLine
 10
16.450902176
 20
2.3655447121
 30
0.0
 11
16.0705033122
 21
2.8809556079
 31
0.0
  0
LINE
  5
AB
330
1F
100
AcDbEntity
  8
0
  6
Continuous
 62
     7
370
     0
100
AcDbLine
 10
16.071028781
 20
2.9012685903
 30
0.0
 11
16.4664196357
 21
2.3655447121
 31
0.0
  0
LINE
  5
AC
330
1F
100
AcDbEntity
  8
0
  6
Continuous
 62
     7
370
     0
100
AcDbLine
 10
16.0705033122
 20
2.9209503144
 30
0.0
 11
16.4804202577
 21
2.3655447121
 31
0.0
  0
LINE
  5
AD
330
1F
100
AcDbEntity
  8
0
  6
Continuous
 62
     7
370
     0
100
AcDbLine
 10
16.0705033122
 20
2.9483151136
 30
0.0
 11
16.5006168399
 21
2.3655447121
 31
0.0
  0
LINE
  5
AE
330
1F
100
AcDbEntity
  8
0
  6
Continuous
 62
     7
370
     0
100
AcDbLine
 10
16.0705033122
 20
2.9756799129
 30
0.0
 11
16.5208134221
 21
2.3655447121
 31
0.0
  0
LINE
  5
AF
330
1F
100
AcDbEntity
  8
0
  6
Continuous
 62
     7
370
     0
100
AcDbLine
 10
16.0705033122
 20
3.0030447121
 30
0.0
 11
16.5530033122
 21
2.3492947121
 31
0.0
  0
LINE
  5
B0
330
1F
100
AcDbEntity
  8
0
  6
Continuous
 62
     7
370
     0
100
AcDbLine
 10
16.382109155
 20
2.3492947121
 30
0.0
 11
16.5530033122
 21
2.3492947121
 31
0.0
  0
LINE
  5
B1
330
1F
100
AcDbEntity
  8
0
  6
Continuous
 62
     7
370
     0
100
AcDbLine
 10
15.7820481855
 20
2.6122104342
 30
0.0
 11
15.8674952641
 21
2.4964362837
 31
0.0
  0
LINE
  5
B2
330
1F
100
AcDbEntity
  8
0
  6
Continuous
 62
     7
370
     0
100
AcDbLine
 10
15.8573969729
 20
2.5374834825
 30
0.0
 11
16.0705033122
 21
2.8262260095
 31
0.0
  0
LINE
  5
B3
330
1F
100
AcDbEntity
  8
0
  6
Continuous
 62
     7
370
     0
100
AcDbLine
 10
15.8674952641
 20
2.5238010829
 30
0.0
 11
16.0705033122
 21
2.7988612103
 31
0.0
  0
CIRCLE
  5
B4
330
1F
100
AcDbEntity
  8
0
  6
Continuous
 62
     7
370
     0
100
AcDbCircle
 10
15.4330033122
 20
2.5456446217
 30
0.0
 40
0.1062500000000013
  0
CIRCLE
  5
B5
330
1F
100
AcDbEntity
  8
0
  6
Continuous
 62
     7
370
     0
100
AcDbCircle
 10
15.4330033122
 20
2.5456446217
 30
0.0
 40
0.0836037153186397
  0
CIRCLE
  5
B6
330
1F
100
AcDbEntity
  8
0
  6
Continuous
 62
     7
370
     0
100
AcDbCircle
 10
15.4330033122
 20
2.5456446217
 30
0.0
 40
0.0621301459032617
  0
CIRCLE
  5
B7
330
1F
100
AcDbEntity
  8
0
  6
Continuous
 62
     7
370
     0
100
AcDbCircle
 10
15.4330033122
 20
2.5456446217
 30
0.0
 40
0.0395041322689638
  0
CIRCLE
  5
B8
330
1F
100
AcDbEntity
  8
0
  6
Continuous
 62
     7
370
     0
100
AcDbCircle
 10
15.4330033122
 20
2.5456446217
 30
0.0
 40
0.0192268515385251
  0
CIRCLE
  5
B9
330
1F
100
AcDbEntity
  8
0
  6
Continuous
 62
     7
370
     0
100
AcDbCircle
 10
16.7441873713
 20
2.9012685903
 30
0.0
 40
0.0956249999999959
  0
INSERT
  5
C1
330
1F
100
AcDbEntity
  8
0
  6
Continuous
 62
   136
370
     0
100
AcDbBlockReference
  2
SW_NOTE_0
 10
5.1239664492
 20
2.2093120423
 30
0.0
  0
MTEXT
  5
C3
330
1F
100
AcDbEntity
  8
0
  6
Continuous
 62
     7
370
     0
100
AcDbMText
 10
16.6947346154
 20
2.9665374389
 30
0.0
 40
0.13725
 41
0.0
 71
     1
 72
     1
  1
R
  7
SLDTEXTSTYLE2
 73
     1
 44
1.0
  0
MTEXT
  5
C4
330
1F
100
AcDbEntity
  8
0
  6
Continuous
 62
     7
370
     0
100
AcDbMText
 10
16.9584948908
 20
3.027845125
 30
0.0
 40
0.195
 41
0.0
 71
     1
 72
     1
  1
ALLIED MOULDED PRODUCTS
  7
SLDTEXTSTYLE2
 73
     1
 44
1.0
  0
MTEXT
  5
C5
330
1F
100
AcDbEntity
  8
0
  6
Continuous
 62
     7
370
     0
100
AcDbMText
 10
17.964707353
 20
2.7925702122
 30
0.0
 40
0.17725
 41
0.0
 71
     1
 72
     1
  1
BRYAN, OHIO
  7
SLDTEXTSTYLE2
 73
     1
 44
1.0
  0
MTEXT
  5
C7
330
1F
100
AcDbEntity
  8
0
  6
Continuous
 62
     7
370
     0
100
AcDbMText
 10
17.0741671703
 20
2.4654475319
 30
0.0
 40
0.1432291667
 41
0.0
 71
     1
 72
     1
  1
The Original Fiber Glass Outlet Box
  7
SLDTEXTSTYLE3
 73
     1
 44
1.0
  0
MTEXT
  5
C8
330
1F
100
AcDbEntity
  8
0
  6
Continuous
 62
     7
370
     0
100
AcDbMText
 10
14.8782744496
 20
2.1739420041
 30
0.0
 40
0.1041666667
 41
0.0
 71
     1
 72
     1
  1
PRODUCT SERIES
  7
SLDTEXTSTYLE2
 73
     1
 44
1.0
  0
MTEXT
  5
C9
330
1F
100
AcDbEntity
  8
0
  6
Continuous
 62
     7
370
     0
100
AcDbMText
 10
14.8778280215
 20
1.4284829362
 30
0.0
 40
0.1041666667
 41
0.0
 71
     1
 72
     1
  1
Part No.
  7
SLDTEXTSTYLE2
 73
     1
 44
1.0
  0
MTEXT
  5
CA
330
1F
100
AcDbEntity
  8
0
  6
Continuous
 62
     7
370
     0
100
AcDbMText
 10
12.6805406995
 20
1.3261055309
 30
0.0
 40
0.15625
 41
0.0
 71
     1
 72
     1
  1
CONFIDENTIAL
  7
SLDTEXTSTYLE3
 73
     1
 44
1.0
  0
INSERT
  5
D3
330
1F
100
AcDbEntity
  8
0
  6
Continuous
 62
     7
370
     0
100
AcDbBlockReference
  2
SW_NOTE_1
 10
12.2426830655
 20
0.9877700483
 30
0.0
  0
MTEXT
  5
D4
330
1F
100
AcDbEntity
  8
0
  6
Continuous
 62
     7
370
     0
100
AcDbMText
 10
18.9508239621
 20
13.1414127666
 30
0.0
 40
0.15625
 41
0.0
 71
     1
 72
     1
  1
6/24/2016
  7
SLDTEXTSTYLE2
 73
     1
 44
1.0
  0
MTEXT
  5
D5
330
1F
100
AcDbEntity
  8
0
  6
Continuous
 62
     7
370
     0
100
AcDbMText
 10
15.0732819373
 20
1.1733113084
 30
0.0
 40
0.46875
 41
0.0
 71
     1
 72
     1
  1
PLA86
  7
SLDTEXTSTYLE2
 73
     1
 44
1.0
  0
MTEXT
  5
D6
330
1F
100
AcDbEntity
  8
0
  6
Continuous
 62
     7
370
     0
100
AcDbMText
 10
15.0930941799
 20
1.9280037781
 30
0.0
 40
0.2604166667
 41
0.0
 71
     1
 72
     1
  1
Access-Indus
  7
SLDTEXTSTYLE2
 73
     1
 44
1.0
  0
MTEXT
  5
D7
330
1F
100
AcDbEntity
  8
0
  6
Continuous
 62
     7
370
     0
100
AcDbMText
 10
17.6300842018
 20
13.1414127666
 30
0.0
 40
0.15625
 41
0.0
 71
     1
 72
     1
  1
ISSUE DATE:
  7
SLDTEXTSTYLE2
 73
     1
 44
1.0
  0
DIMENSION
  5
D8
330
1F
100
AcDbEntity
  8
0
  6
Continuous
 62
   136
370
     0
100
AcDbDimension
  2
_D
 10
3.3428044948
 20
10.6871783268
 30
0.0
 11
3.3428044948
 21
10.3380262196
 31
0.0
 70
   160
  1
<> 2x
 71
     2
 42
-1.0
  3
SLDDIMSTYLE0
100
AcDbAlignedDimension
 13
3.8226685977
 23
10.9371783268
 33
0.0
 14
3.9551685977
 24
10.6871783268
 34
0.0
 50
90.0
100
AcDbRotatedDimension
  0
DIMENSION
  5
EE
330
1F
100
AcDbEntity
  8
0
  6
Continuous
 62
   136
370
     0
100
AcDbDimension
  2
_D_1
 10
3.9551685977
 20
11.4293043111
 30
0.0
 11
2.5599914323
 21
11.4293043111
 31
0.0
 70
   160
  1
<> 2x
 71
     2
 42
-1.0
  3
SLDDIMSTYLE1
100
AcDbAlignedDimension
 13
3.6426685977
 23
10.7571783268
 33
0.0
 14
3.9551685977
 24
10.6871783268
 34
0.0
100
AcDbRotatedDimension
  0
DIMENSION
  5
102
330
1F
100
AcDbEntity
  8
0
  6
Continuous
 62
   136
370
     0
100
AcDbDimension
  2
_D_2
 10
8.2051685977
 20
11.7871250347
 30
0.0
 11
6.2665021709
 21
11.7871250347
 31
0.0
 70
   160
  1
<> 2x
 71
     2
 42
-1.0
  3
SLDDIMSTYLE1
100
AcDbAlignedDimension
 13
3.9551685977
 23
10.6871783268
 33
0.0
 14
8.2051685977
 24
10.6871783268
 34
0.0
100
AcDbRotatedDimension
  0
DIMENSION
  5
115
330
1F
100
AcDbEntity
  8
0
  6
Continuous
 62
   136
370
     0
100
AcDbDimension
  2
_D_3
 10
8.5176685977
 20
12.2655234517
 30
0.0
 11
6.1810524459
 21
12.2655234517
 31
0.0
 70
   160
  1
<>
 71
     2
 42
-1.0
  3
SLDDIMSTYLE1
100
AcDbAlignedDimension
 13
3.6426685977
 23
10.7571783268
 33
0.0
 14
8.5176685977
 24
10.7571783268
 34
0.0
100
AcDbRotatedDimension
  0
DIMENSION
  5
127
330
1F
100
AcDbEntity
  8
0
  6
Continuous
 62
   136
370
     0
100
AcDbDimension
  2
_D_4
 10
9.3050701725
 20
4.4371783268
 30
0.0
 11
9.3050701725
 21
8.0529610559
 31
0.0
 70
   160
  1
<>\P2x
 71
     2
 42
-1.0
  3
SLDDIMSTYLE1
100
AcDbAlignedDimension
 13
8.2051685977
 23
10.6871783268
 33
0.0
 14
8.2051685977
 24
4.4371783268
 34
0.0
 50
90.0
100
AcDbRotatedDimension
  0
DIMENSION
  5
13A
330
1F
100
AcDbEntity
  8
0
  6
Continuous
 62
   136
370
     0
100
AcDbDimension
  2
_D_5
 10
10.1908969442
 20
4.1871783268
 30
0.0
 11
10.1908969442
 21
6.9201315593
 31
0.0
 70
   160
  1
<>
 71
     2
 42
-1.0
  3
SLDDIMSTYLE1
100
AcDbAlignedDimension
 13
8.3376685977
 23
10.9371783268
 33
0.0
 14
8.3376685977
 24
4.1871783268
 34
0.0
 50
90.0
100
AcDbRotatedDimension
  0
DIMENSION
  5
14C
330
1F
100
AcDbEntity
  8
0
  6
Continuous
 62
   136
370
     0
100
AcDbDimension
  2
_D_6
 10
3.8882625358
 20
4.5427651579
 30
0.0
 11
5.1799882643
 21
3.7010095617
 31
0.0
 70
   163
  1
<>\P4x
 71
     1
 42
-1.0
  3
SLDDIMSTYLE2
100
AcDbDiametricDimension
 15
4.0220746596
 25
4.3315914958
 35
0.0
 40
0.0
  0
DIMENSION
  5
15E
330
1F
100
AcDbEntity
  8
0
  6
Continuous
 62
   136
370
     0
100
AcDbDimension
  2
_D_7
 10
12.6007786329
 20
11.2558249024
 30
0.0
 11
13.6443166863
 21
11.2558249024
 31
0.0
 70
   160
  1
<>
 71
     2
 42
-1.0
  3
SLDDIMSTYLE3
100
AcDbAlignedDimension
 13
12.7007786329
 23
10.7571783268
 33
0.0
 14
12.6007786329
 24
10.7571783268
 34
0.0
100
AcDbRotatedDimension
  0
ENDSEC
  0
SECTION
  2
OBJECTS
  0
DICTIONARY
  5
C
330
0
100
AcDbDictionary
281
     1
  3
ACAD_GROUP
350
D
  3
ACAD_LAYOUT
350
1A
  3
ACAD_MLINESTYLE
350
17
  3
ACAD_PLOTSETTINGS
350
19
  3
ACAD_PLOTSTYLENAME
350
E
  3
ACAD_SCALELIST
350
47
  0
DICTIONARY
  5
D
102
{ACAD_REACTORS
330
C
102
}
330
C
100
AcDbDictionary
281
     1
  0
DICTIONARY
  5
1A
102
{ACAD_REACTORS
330
C
102
}
330
C
100
AcDbDictionary
281
     1
  3
Layout1
350
1E
  3
Layout2
350
26
  3
Model
350
22
  0
DICTIONARY
  5
17
102
{ACAD_REACTORS
330
C
102
}
330
C
100
AcDbDictionary
281
     1
  3
Standard
350
18
  0
DICTIONARY
  5
19
102
{ACAD_REACTORS
330
C
102
}
330
C
100
AcDbDictionary
281
     1
  0
ACDBDICTIONARYWDFLT
  5
E
102
{ACAD_REACTORS
330
C
102
}
330
C
100
AcDbDictionary
281
     1
  3
Normal
350
F
100
AcDbDictionaryWithDefault
340
F
  0
DICTIONARY
  5
47
102
{ACAD_REACTORS
330
C
102
}
330
C
100
AcDbDictionary
281
     1
  3
A0
350
48
  3
A1
350
49
  3
A2
350
4A
  3
A3
350
4B
  3
A4
350
4C
  3
A5
350
4D
  3
A6
350
4E
  3
A7
350
4F
  3
A8
350
50
  3
A9
350
51
  3
B0
350
52
  3
B1
350
53
  3
B2
350
54
  3
B3
350
55
  3
B4
350
56
  3
B5
350
57
  3
B6
350
58
  3
B7
350
59
  3
B8
350
5A
  3
B9
350
5B
  3
C0
350
5C
  3
C1
350
5D
  3
C2
350
5E
  3
C3
350
5F
  3
C4
350
60
  3
C5
350
61
  3
C6
350
62
  3
C7
350
63
  3
C8
350
64
  3
C9
350
65
  3
D0
350
66
  3
D1
350
67
  3
D2
350
68
  0
LAYOUT
  5
1E
102
{ACAD_REACTORS
330
1A
102
}
330
1A
100
AcDbPlotSettings
  1

  2
none_device
  4

  6

 40
0.0
 41
0.0
 42
0.0
 43
0.0
 44
0.0
 45
0.0
 46
0.0
 47
0.0
 48
0.0
 49
0.0
140
0.0
141
0.0
142
1.0
143
1.0
 70
   688
 72
     0
 73
     0
 74
     5
  7

 75
    16
147
1.0
148
0.0
149
0.0
100
AcDbLayout
  1
Layout1
 70
     1
 71
     1
 10
0.0
 20
0.0
 11
12.0
 21
9.0
 12
0.0
 22
0.0
 32
0.0
 14
1.0000000000E+20
 24
1.0000000000E+20
 34
1.0000000000E+20
 15
-1.0000000000E+20
 25
-1.0000000000E+20
 35
-1.0000000000E+20
146
0.0
 13
0.0
 23
0.0
 33
0.0
 16
1.0
 26
0.0
 36
0.0
 17
0.0
 27
1.0
 37
0.0
 76
     0
330
1B
  0
LAYOUT
  5
26
102
{ACAD_REACTORS
330
1A
102
}
330
1A
100
AcDbPlotSettings
  1

  2
none_device
  4

  6

 40
0.0
 41
0.0
 42
0.0
 43
0.0
 44
0.0
 45
0.0
 46
0.0
 47
0.0
 48
0.0
 49
0.0
140
0.0
141
0.0
142
1.0
143
1.0
 70
   688
 72
     0
 73
     0
 74
     5
  7

 75
    16
147
1.0
148
0.0
149
0.0
100
AcDbLayout
  1
Layout2
 70
     1
 71
     2
 10
0.0
 20
0.0
 11
0.0
 21
0.0
 12
0.0
 22
0.0
 32
0.0
 14
0.0
 24
0.0
 34
0.0
 15
0.0
 25
0.0
 35
0.0
146
0.0
 13
0.0
 23
0.0
 33
0.0
 16
1.0
 26
0.0
 36
0.0
 17
0.0
 27
1.0
 37
0.0
 76
     0
330
23
  0
LAYOUT
  5
22
102
{ACAD_REACTORS
330
1A
102
}
330
1A
100
AcDbPlotSettings
  1

  2
none_device
  4
Letter_(8.50_x_11.00_Inches)
  6

 40
6.35
 41
6.35
 42
6.35000508
 43
6.35000508
 44
215.9
 45
279.4
 46
0.0
 47
0.0
 48
0.0
 49
0.0
140
0.0
141
0.0
142
1.0
143
1.0
 70
  1712
 72
     0
 73
     0
 74
     0
  7

 75
     0
147
1.0
148
0.0
149
0.0
100
AcDbLayout
  1
Model
 70
     1
 71
     0
 10
0.0
 20
0.0
 11
21.25
 21
13.75
 12
0.0
 22
0.0
 32
0.0
 14
0.0
 24
0.0
 34
0.0
 15
21.25
 25
13.75
 35
0.0
146
0.0
 13
0.0
 23
0.0
 33
0.0
 16
1.0
 26
0.0
 36
0.0
 17
0.0
 27
1.0
 37
0.0
 76
     0
330
1F
331
29
  0
MLINESTYLE
  5
18
102
{ACAD_REACTORS
330
17
102
}
330
17
100
AcDbMlineStyle
  2
Standard
 70
     0
  3

 62
   256
 51
90.0
 52
90.0
 71
     2
 49
0.5
 62
   256
  6
BYLAYER
 49
-0.5
 62
   256
  6
BYLAYER
  0
ACDBPLACEHOLDER
  5
F
102
{ACAD_REACTORS
330
E
102
}
330
E
  0
SCALE
  5
48
102
{ACAD_REACTORS
330
47
102
}
330
47
100
AcDbScale
 70
     0
300
1:1
140
1.0
141
1.0
290
     1
  0
SCALE
  5
49
102
{ACAD_REACTORS
330
47
102
}
330
47
100
AcDbScale
 70
     0
300
1:2
140
1.0
141
2.0
290
     0
  0
SCALE
  5
4A
102
{ACAD_REACTORS
330
47
102
}
330
47
100
AcDbScale
 70
     0
300
1:4
140
1.0
141
4.0
290
     0
  0
SCALE
  5
4B
102
{ACAD_REACTORS
330
47
102
}
330
47
100
AcDbScale
 70
     0
300
1:5
140
1.0
141
5.0
290
     0
  0
SCALE
  5
4C
102
{ACAD_REACTORS
330
47
102
}
330
47
100
AcDbScale
 70
     0
300
1:8
140
1.0
141
8.0
290
     0
  0
SCALE
  5
4D
102
{ACAD_REACTORS
330
47
102
}
330
47
100
AcDbScale
 70
     0
300
1:10
140
1.0
141
10.0
290
     0
  0
SCALE
  5
4E
102
{ACAD_REACTORS
330
47
102
}
330
47
100
AcDbScale
 70
     0
300
1:16
140
1.0
141
16.0
290
     0
  0
SCALE
  5
4F
102
{ACAD_REACTORS
330
47
102
}
330
47
100
AcDbScale
 70
     0
300
1:20
140
1.0
141
20.0
290
     0
  0
SCALE
  5
50
102
{ACAD_REACTORS
330
47
102
}
330
47
100
AcDbScale
 70
     0
300
1:30
140
1.0
141
30.0
290
     0
  0
SCALE
  5
51
102
{ACAD_REACTORS
330
47
102
}
330
47
100
AcDbScale
 70
     0
300
1:40
140
1.0
141
40.0
290
     0
  0
SCALE
  5
52
102
{ACAD_REACTORS
330
47
102
}
330
47
100
AcDbScale
 70
     0
300
1:50
140
1.0
141
50.0
290
     0
  0
SCALE
  5
53
102
{ACAD_REACTORS
330
47
102
}
330
47
100
AcDbScale
 70
     0
300
1:100
140
1.0
141
100.0
290
     0
  0
SCALE
  5
54
102
{ACAD_REACTORS
330
47
102
}
330
47
100
AcDbScale
 70
     0
300
2:1
140
2.0
141
1.0
290
     0
  0
SCALE
  5
55
102
{ACAD_REACTORS
330
47
102
}
330
47
100
AcDbScale
 70
     0
300
4:1
140
4.0
141
1.0
290
     0
  0
SCALE
  5
56
102
{ACAD_REACTORS
330
47
102
}
330
47
100
AcDbScale
 70
     0
300
8:1
140
8.0
141
1.0
290
     0
  0
SCALE
  5
57
102
{ACAD_REACTORS
330
47
102
}
330
47
100
AcDbScale
 70
     0
300
10:1
140
10.0
141
1.0
290
     0
  0
SCALE
  5
58
102
{ACAD_REACTORS
330
47
102
}
330
47
100
AcDbScale
 70
     0
300
100:1
140
100.0
141
1.0
290
     0
  0
SCALE
  5
59
102
{ACAD_REACTORS
330
47
102
}
330
47
100
AcDbScale
 70
     0
300
1/128" = 1'-0"
140
0.0078125
141
12.0
290
     0
  0
SCALE
  5
5A
102
{ACAD_REACTORS
330
47
102
}
330
47
100
AcDbScale
 70
     0
300
1/64" = 1'-0"
140
0.015625
141
12.0
290
     0
  0
SCALE
  5
5B
102
{ACAD_REACTORS
330
47
102
}
330
47
100
AcDbScale
 70
     0
300
1/32" = 1'-0"
140
0.03125
141
12.0
290
     0
  0
SCALE
  5
5C
102
{ACAD_REACTORS
330
47
102
}
330
47
100
AcDbScale
 70
     0
300
1/16" = 1'-0"
140
0.0625
141
12.0
290
     0
  0
SCALE
  5
5D
102
{ACAD_REACTORS
330
47
102
}
330
47
100
AcDbScale
 70
     0
300
3/32" = 1'-0"
140
0.09375
141
12.0
290
     0
  0
SCALE
  5
5E
102
{ACAD_REACTORS
330
47
102
}
330
47
100
AcDbScale
 70
     0
300
1/8" = 1'-0"
140
0.125
141
12.0
290
     0
  0
SCALE
  5
5F
102
{ACAD_REACTORS
330
47
102
}
330
47
100
AcDbScale
 70
     0
300
3/16" = 1'-0"
140
0.1875
141
12.0
290
     0
  0
SCALE
  5
60
102
{ACAD_REACTORS
330
47
102
}
330
47
100
AcDbScale
 70
     0
300
1/4" = 1'-0"
140
0.25
141
12.0
290
     0
  0
SCALE
  5
61
102
{ACAD_REACTORS
330
47
102
}
330
47
100
AcDbScale
 70
     0
300
3/8" = 1'-0"
140
0.375
141
12.0
290
     0
  0
SCALE
  5
62
102
{ACAD_REACTORS
330
47
102
}
330
47
100
AcDbScale
 70
     0
300
1/2" = 1'-0"
140
0.5
141
12.0
290
     0
  0
SCALE
  5
63
102
{ACAD_REACTORS
330
47
102
}
330
47
100
AcDbScale
 70
     0
300
3/4" = 1'-0"
140
0.75
141
12.0
290
     0
  0
SCALE
  5
64
102
{ACAD_REACTORS
330
47
102
}
330
47
100
AcDbScale
 70
     0
300
1" = 1'-0"
140
1.0
141
12.0
290
     0
  0
SCALE
  5
65
102
{ACAD_REACTORS
330
47
102
}
330
47
100
AcDbScale
 70
     0
300
1-1/2" = 1'-0"
140
1.5
141
12.0
290
     0
  0
SCALE
  5
66
102
{ACAD_REACTORS
330
47
102
}
330
47
100
AcDbScale
 70
     0
300
3" = 1'-0"
140
3.0
141
12.0
290
     0
  0
SCALE
  5
67
102
{ACAD_REACTORS
330
47
102
}
330
47
100
AcDbScale
 70
     0
300
6" = 1'-0"
140
6.0
141
12.0
290
     0
  0
SCALE
  5
68
102
{ACAD_REACTORS
330
47
102
}
330
47
100
AcDbScale
 70
     0
300
1'-0" = 1'-0"
140
12.0
141
12.0
290
     0
  0
ENDSEC
  0
EOF
